<?xml version="1.0" standalone="no"?>
<!DOCTYPE svg PUBLIC "-//W3C//DTD SVG 1.1//EN" "http://www.w3.org/Graphics/SVG/1.1/DTD/svg11.dtd">
<svg xmlns="http://www.w3.org/2000/svg">
<defs >
<font id="Lora" horiz-adv-x="588" ><font-face
    font-family="Lora Medium"
    units-per-em="1000"
    panose-1="0 0 0 0 0 0 0 0 0 0"
    ascent="1006"
    descent="-274"
    alphabetic="0" />
<glyph unicode=" " horiz-adv-x="263" />
<glyph unicode="!" horiz-adv-x="266" d="M157 716Q181 716 194 704T211 674T213 637L154 224H107L92 637Q91 665 107 690T157 716ZM126 122Q153 122 170 102T185 53Q184 24 163 4T117 -16Q92 -16 75 4T59 53Q61 81 81 101T126 122Z" />
<glyph unicode="&quot;" horiz-adv-x="345" d="M320 716L298 491H231L236 716H320ZM163 716L142 491H74L79 716H163Z" />
<glyph unicode="#" horiz-adv-x="819" d="M679 705L636 528H803V527L784 460H618L565 239H732L712 170H548L505 -5H422L467 170H270L227 -5H145L189 170H23L42 239H206L262 460H94L114 528H280L325 705H402L358 528H557L603 705H679ZM540 460H341L286 239H484L540 460Z" />
<glyph unicode="$" horiz-adv-x="543" d="M224 -153L230 -15Q199 -12 164 -3T98 24L100 -12H39L50 208H95Q99 119 145 77T267 34Q324 34 360 67T399 151Q401 191 380 219T325 268T251 308Q214 326 179 347T116 394T73 454T59 536Q60 562 70 592T104 649T166 694T261
716L267 834H334L327 712Q353 707 377 697T426 670L425 714H484L472 491H425Q423 541 409 581T363 644T276 667Q238 667 212 652T172 611T157 558Q156 521 174 495T225 446T303 401Q339 382 375 362T440 316T486 256T500 175Q498 127 474 86T406 18T297 -15L289
-153H224Z" />
<glyph unicode="%" horiz-adv-x="877" d="M158 -16L111 29L709 716L762 666L158 -16ZM222 332Q163 332 124 359T66 429T49 520Q52 567 75 611T140 685T242 716Q303 718 343 691T401 620T417 530Q415 478 388 433T317 360T222 332ZM227 380Q252 380 269 393T297
427T313 472T319 518Q320 542 317 568T305 617T280 654T240 669Q213 669 196 655T168 618T152 572T147 531Q145 508 148 482T160 433T185 395T227 380ZM642 -16Q582 -16 543 11T485 81T469 173Q472 220 495 264T560 338T661 368Q723 370 762 343T820 272T837 182Q834
130 807 85T737 12T642 -16ZM647 31Q681 31 700 54T729 109T739 170Q740 194 737 220T725 269T700 306T660 320Q633 320 615 306T587 269T572 223T566 182Q566 160 568 134T579 85T604 46T647 31Z" />
<glyph unicode="&amp;" horiz-adv-x="684" d="M286 -16Q213 -16 154 6T62 72T30 185Q32 233 54 274T118 346T218 385Q141 401 110 440T82 530Q85 589 115 630T196 694T308 716Q365 716 405 700T467 657T489 600Q489 578 476 562T440 545Q420 544 406 556T391 589Q390
597 392 608T400 626Q394 644 371 657T314 670Q278 670 251 653T207 606T189 539Q188 521 192 498T209 454T247 419T312 405Q329 405 334 405T350 406L347 353L310 354Q267 355 236 341T186 304T156 255T144 205Q141 148 165 112T227 57T304 38Q378 38 423 66T490
140T514 239Q492 239 472 238T431 228T384 200L359 226Q384 263 407 281T461 305T533 312Q571 312 603 318T667 356L695 334Q678 308 663 289T625 258T563 241Q562 201 548 156T503 72T419 9T286 -16Z" />
<glyph unicode="&apos;" horiz-adv-x="195" d="M169 716L147 491H75L79 716H169Z" />
<glyph unicode="(" horiz-adv-x="297" d="M227 -271Q191 -237 155 -185T88 -65T40 79T27 239Q32 322 57 401T119 549T199 672T280 760L307 733Q274 692 248 644T202 545T168 441T145 337T135 239Q132 193 135 143T146 42T170 -59T206 -156T257 -244L227 -271Z" />
<glyph unicode=")" horiz-adv-x="297" d="M63 760Q99 726 135 674T202 554T250 410T264 250Q260 167 235 88T171 -60T91 -183T10 -271L-17 -244Q16 -203 42 -155T89 -56T123 48T145 152T156 250Q158 296 156 346T144 447T120 548T84 645T33 733L63 760Z" />
<glyph unicode="*" horiz-adv-x="513" d="M281 716Q300 716 308 705T317 678T317 644Q312 615 306 580T288 511Q319 530 350 545T409 572Q424 580 441 582T473 581T491 559Q499 532 479 518T433 497Q404 491 369 486T297 477Q323 455 346 432T388 386Q398 374
405 358T412 326T395 300Q372 284 354 298T323 333Q310 358 295 390T269 456Q253 423 235 391T201 334Q187 314 167 300T124 301Q111 311 111 326T120 356T140 385Q160 407 185 430T240 477Q204 481 170 486T107 497Q91 502 77 509T55 529T55 559Q65 584 90 583T138
572Q165 561 194 546T253 511Q245 545 242 580T238 644Q238 661 241 677T253 705T281 716Z" />
<glyph unicode="+" horiz-adv-x="530" d="M49 393H495L492 334H46L49 393ZM312 583L288 137H229L253 583H312Z" />
<glyph unicode="," horiz-adv-x="241" d="M100 111Q136 111 154 87T172 24Q171 -3 161 -38T132 -110T83 -182L54 -159Q69 -141 82 -115T104 -58T113 0Q107 -2 102 -3T89 -4Q67 -4 52 10T38 49Q38 77 56 94T100 111Z" />
<glyph unicode="-" horiz-adv-x="480" d="M422 357L418 282L59 278L63 357H422Z" />
<glyph unicode="." horiz-adv-x="232" d="M105 120Q131 120 147 100T162 52Q161 23 142 4T97 -16Q71 -16 54 3T38 52Q40 80 60 100T105 120Z" />
<glyph unicode="/" horiz-adv-x="658" d="M602 758L667 714L36 -271L-19 -232L602 758Z" />
<glyph unicode="0" horiz-adv-x="606" d="M326 716Q398 716 445 683T519 596T556 478T563 351Q560 289 543 224T492 105T409 17T290 -16Q215 -16 167 17T92 104T56 222T50 349Q53 412 71 476T122 595T207 683T326 716ZM326 668Q285 668 256 643T208 574T178 478T164
368Q162 326 163 280T172 190T194 111T234 54T296 33Q337 33 364 58T409 127T436 223T449 331Q452 392 449 451T433 560T394 638T326 668Z" />
<glyph unicode="1" horiz-adv-x="368" d="M278 716L247 127Q246 106 245 86T240 51Q260 53 282 53T321 55L319 0H59L60 44Q91 46 109 57T137 90T148 149L168 597L49 524L26 564L235 716H278Z" />
<glyph unicode="2" horiz-adv-x="524" d="M276 716Q316 716 353 707T420 676T466 619T479 532Q478 507 467 479T431 417T365 345T263 258Q197 207 158 164T110 84L291 79Q331 78 362 80T411 96T431 146H473L458 0H24Q27 53 44 94T90 169T152 234T223 298Q287 356
324 412T364 520Q366 558 357 591T324 646T255 666Q218 666 189 649T147 605Q157 595 160 582T163 558Q163 540 149 523T107 506Q84 507 70 523T56 564Q57 588 71 614T114 663T183 701T276 716Z" />
<glyph unicode="3" horiz-adv-x="545" d="M234 -16Q161 -16 115 6T47 62T28 129Q29 154 44 170T84 187Q102 187 113 179T129 160T135 136Q134 126 131 115T119 94Q128 65 160 51T228 37Q299 37 339 78T382 188Q384 212 379 239T360 290T318 329T244 344Q229 344
213 344T183 342L185 396Q195 396 204 396T223 396Q273 396 304 417T352 469T369 531Q372 570 363 600T331 649T263 667Q236 667 213 657T175 633T155 603Q163 592 165 581T167 560Q167 549 161 537T144 518T115 510Q92 511 79 526T66 565Q66 595 91 630T163 691T280
716Q336 716 383 699T457 644T480 542Q479 512 462 479T408 419T315 378Q410 367 456 316T498 195Q495 127 458 80T361 9T234 -16Z" />
<glyph unicode="4" horiz-adv-x="529" d="M201 0L203 44Q233 46 251 55T279 89T291 157L293 189H2L5 253L375 716H418L397 257L496 256L493 189H394L391 116Q390 97 389 81T382 50L460 53L457 0H201ZM296 258L312 549H310L78 261L296 258Z" />
<glyph unicode="5" horiz-adv-x="525" d="M484 765L469 625L155 618L133 412Q156 422 191 429T265 437Q327 437 369 418T438 367T475 294T484 212Q480 137 443 86T347 10T224 -16Q160 -16 117 5T52 59T34 126Q36 151 51 167T90 184Q108 184 119 177T135 158T141
133Q141 124 138 113T127 92Q129 72 145 59T184 39T227 34Q273 36 303 59T349 118T366 193Q368 219 365 251T350 314T309 363T231 383Q207 383 175 375T110 348L78 375L104 700H349Q398 700 421 714T446 765H484Z" />
<glyph unicode="6" horiz-adv-x="556" d="M334 716Q395 717 433 696T489 646T505 588Q504 565 490 549T452 533Q426 533 414 549T402 583Q402 591 405 602T416 623Q411 638 390 653T333 667Q293 666 264 645T216 589T186 514T168 435T159 366Q174 385 197 402T250
429T313 440Q371 441 410 422T471 370T502 297T508 214Q505 151 473 99T387 15T264 -16Q178 -16 129 26T62 145T51 327Q53 363 61 412T88 514T138 612T218 686T334 716ZM290 384Q262 384 235 371T186 335T154 287Q152 244 156 200T173 117T209 56T268 33Q311 33
338 55T380 114T396 191Q397 217 395 250T383 313T350 364T290 384Z" />
<glyph unicode="7" horiz-adv-x="455" d="M178 -16Q155 -15 146 -1T137 32Q138 52 148 81T176 149T214 232Q235 277 263 339T327 474T399 622H152Q114 621 92 606T67 549H30L40 700H461L457 626Q418 553 389 486T336 351T290 210T241 51Q234 25 220 4T178 -16Z" />
<glyph unicode="8" horiz-adv-x="563" d="M268 -16Q228 -16 189 -8T118 21T68 73T53 154Q55 196 77 233T133 301T206 356Q140 397 110 443T82 531Q85 579 105 614T158 671T229 705T306 716Q358 716 402 698T474 643T499 553Q497 517 477 484T426 425T361 379Q395
354 422 331T470 284T500 231T508 169Q505 105 471 64T383 4T268 -16ZM272 34Q326 34 360 66T398 149Q400 181 393 204T367 246T320 286T251 331Q198 294 175 248T149 167Q145 106 178 70T272 34ZM316 405Q359 434 384 473T412 545Q416 604 386 635T308 667Q272
667 246 651T205 610T188 555Q186 526 200 498T244 447T316 405Z" />
<glyph unicode="9" horiz-adv-x="555" d="M295 716Q361 715 405 688T472 614T505 503T510 367Q508 323 501 272T476 169T427 77T349 10T233 -16Q171 -16 132 4T76 55T61 118Q63 141 78 157T116 174Q142 174 153 158T165 124Q164 115 160 103T148 83Q154 66 173
50T234 33Q274 34 302 53T349 106T380 179T397 259T404 336Q381 307 341 284T248 261Q190 260 152 279T91 331T61 404T55 488Q59 552 88 604T170 686T295 716ZM287 667Q249 667 223 645T182 587T166 510Q165 484 167 451T180 388T213 337T274 317Q302 317 328 330T375
364T406 411Q407 460 402 506T385 588T349 646T287 667Z" />
<glyph unicode=":" horiz-adv-x="250" d="M125 120Q151 120 167 100T182 52Q181 23 162 4T117 -16Q91 -16 74 3T58 52Q60 80 80 100T125 120ZM135 525Q161 525 177 505T192 457Q191 428 172 409T127 389Q101 389 84 408T68 457Q70 485 90 505T135 525Z" />
<glyph unicode=";" horiz-adv-x="271" d="M123 111Q159 111 177 87T195 24Q194 -3 184 -38T155 -110T106 -182L77 -159Q92 -141 105 -115T127 -58T136 0Q130 -2 125 -3T112 -4Q90 -4 75 10T61 49Q61 77 79 94T123 111ZM141 525Q167 525 183 505T198 457Q197 428
178 409T133 389Q107 389 90 408T74 457Q76 485 96 505T141 525Z" />
<glyph unicode="&lt;" horiz-adv-x="530" d="M479 81L43 275L47 350L504 548L500 474L133 316L483 157L479 81Z" />
<glyph unicode="=" horiz-adv-x="530" d="M54 474H500L497 415H51L54 474ZM45 315H491L488 256H42L45 315Z" />
<glyph unicode="&gt;" horiz-adv-x="530" d="M57 548L493 354L489 279L32 81L36 155L403 313L53 472L57 548Z" />
<glyph unicode="?" horiz-adv-x="477" d="M223 186Q208 186 189 192T157 214T145 253Q146 274 157 291T189 327T237 371Q264 393 287 417T326 472T345 542Q348 577 339 605T307 650T242 667Q217 667 195 658T159 636T139 609Q148 601 151 588T154 565Q154 553
148 541T129 522T100 514Q76 515 63 530T49 571Q50 603 77 636T151 693T261 716Q338 716 381 691T441 627T453 547Q450 506 426 472T369 410T302 358T247 313T224 271Q223 259 231 249T263 239Q270 239 279 240T299 245L310 205Q291 194 268 190T223 186ZM218 -16Q195
-16 178 2T162 49Q164 76 183 95T226 115Q252 115 268 96T282 49Q281 22 262 3T218 -16Z" />
<glyph unicode="@" horiz-adv-x="784" d="M414 636Q501 640 565 613T670 539T729 433T744 313Q740 240 716 191T657 114T587 75T524 68Q495 72 479 85T456 120T451 169T458 229Q425 146 386 109T305 72Q263 72 234 105T209 213Q212 266 229 314T277 401T352 461T453
483Q476 483 505 480T562 467Q556 433 549 396T536 324T524 257T516 202Q513 169 519 140T551 106Q575 104 596 117T633 156T661 216T675 289Q683 400 648 469T549 569T405 595Q342 592 291 564T200 490T139 385T113 263Q109 183 130 124T192 27T284 -31T395 -53Q431
-53 473 -45T559 -15T638 46L660 20Q606 -37 537 -65T389 -96Q296 -98 229 -71T118 6T55 120T39 257Q42 320 67 385T140 506T255 597T414 636ZM428 446Q395 446 370 425T327 370T298 296T286 218Q284 173 295 147T328 120Q352 120 377 151T425 230T462 334T480
439Q472 443 458 445T428 446Z" />
<glyph unicode="A" horiz-adv-x="643" d="M355 719L544 158Q551 139 559 107T566 51L628 55L626 0H392L394 44Q429 45 440 59T451 95T443 137L418 218L174 212L141 125Q133 105 126 87T108 52L183 56L180 0H-13L-11 45Q15 46 32 61T64 104T93 166L318 719H355ZM310
567Q301 543 290 513T265 449L194 266H403L347 441Q337 473 328 505T310 567Z" />
<glyph unicode="B" horiz-adv-x="632" d="M316 702Q433 702 496 660T552 527Q550 496 532 466T478 412T389 377V375Q495 370 544 320T589 197Q586 135 554 91T467 23T344 0H38L41 44Q74 45 89 57T109 95T117 158L138 566Q139 593 141 614T146 649Q128 648 108
647T72 645L75 700Q135 700 194 701T316 702ZM325 339Q296 339 274 339T229 337L218 132Q217 105 215 85T211 51Q227 50 247 50T286 50T314 50Q386 51 428 88T475 194Q478 249 457 280T401 325T325 339ZM315 655Q289 655 273 647T250 620T241 562L232 386Q249 386
266 386T298 388Q350 390 381 411T427 464T443 533Q446 583 426 609T376 645T315 655Z" />
<glyph unicode="C" horiz-adv-x="687" d="M411 716Q461 716 508 702T598 660H599L598 710H659L647 478H601Q595 568 547 617T416 666Q364 666 319 643T239 578T185 480T161 356Q156 265 185 195T268 84T394 44Q457 44 521 72T631 160L661 133Q613 72 560 40T457
-4T365 -16Q289 -16 229 11T126 86T63 199T46 339Q50 409 74 476T144 597T257 684T411 716Z" />
<glyph unicode="D" horiz-adv-x="744" d="M326 701Q417 701 488 679T607 613T680 508T704 370Q703 301 679 235T605 116T482 32T306 0H38L41 44Q74 46 89 58T109 94T116 155L139 571Q141 593 142 613T146 649Q128 648 108 647T72 645L75 700L326 701ZM320 654Q287
654 271 645T248 612T240 550L218 133Q217 106 215 85T210 51Q228 51 246 51T281 50T313 50Q398 50 459 93T555 207T590 365Q593 502 525 577T320 654Z" />
<glyph unicode="E" horiz-adv-x="620" d="M560 700L556 519H512Q515 576 498 606T452 646T388 655L319 653Q287 653 271 643T249 609T240 545L232 388H319Q347 392 365 400T392 427T402 479H450L439 253H395Q397 296 386 315T349 338T287 341L229 339L218 131Q217
104 215 84T211 50L383 52Q422 53 453 66T504 113T527 203H572L556 0H39L42 44Q74 46 89 58T109 94T117 155L139 571Q141 593 143 613T147 649Q130 648 110 647T73 645L76 700H560Z" />
<glyph unicode="F" horiz-adv-x="549" d="M549 700L544 519H501Q504 576 486 606T439 646T375 655L314 653Q285 653 270 643T248 610T240 550L231 370H317Q341 375 356 384T378 411T387 461H435L423 234H379Q382 275 372 294T339 317T284 322Q271 322 257 322T228
320L218 134Q217 107 215 86T211 51Q226 52 243 52T278 54T308 55L306 0H39L42 44Q74 46 89 58T110 94T117 155L139 571Q141 593 143 613T147 649Q130 648 110 647T73 645L76 700H549Z" />
<glyph unicode="G" horiz-adv-x="754" d="M364 -16Q262 -16 188 28T78 151T46 337Q50 407 74 474T144 596T257 683T411 716Q443 716 479 710T549 692T609 664L608 709H670L658 479H612Q609 539 583 580T514 643T417 665Q364 665 319 642T239 577T185 479T161 359Q156
267 183 196T264 83T393 42Q418 42 447 46T504 60T558 85L563 194Q565 220 566 245T569 291Q553 290 533 289T498 287L500 342H737L734 298Q710 298 696 288T674 261T663 225T659 190L651 35H626Q607 35 580 29T518 11Q486 -1 445 -8T364 -16Z" />
<glyph unicode="H" horiz-adv-x="783" d="M751 700L749 656Q720 655 705 645T683 613T674 554L652 134Q651 107 649 86T644 51Q662 53 682 53T717 55L714 0H472L475 44Q508 46 523 58T543 94T550 155L560 330L228 327L218 134Q217 107 215 86T211 51Q228 53 248
53T284 55L281 0H39L42 44Q74 46 89 58T109 94T117 155L139 571Q141 593 142 613T146 649Q129 648 109 647T73 645L76 700H318L316 656Q287 655 271 645T249 613T240 553L231 382H562L572 571Q573 593 575 613T580 649Q562 648 542 647T506 645L509 700H751Z" />
<glyph unicode="I" horiz-adv-x="350" d="M318 700L316 656Q285 655 270 645T248 612T240 552L218 134Q217 107 215 86T211 51Q228 53 248 53T284 55L281 0H39L42 44Q74 46 89 58T110 94T117 155L139 571Q140 593 142 613T146 649Q129 648 109 647T73 645L76 700H318Z" />
<glyph unicode="J" horiz-adv-x="393" d="M387 700L384 656Q355 656 338 646T314 614T304 561L289 247Q284 153 263 95T201 11T100 -16Q71 -16 45 -7T3 20T-13 67Q-12 91 1 109T41 129Q70 131 82 114T95 78Q95 72 94 65T89 51Q93 42 103 39T120 35Q133 35 146
42T169 74T181 147L201 545Q203 573 205 599T208 649Q194 649 177 648T144 647T114 645L116 700H387Z" />
<glyph unicode="K" horiz-adv-x="682" d="M39 0L42 44Q74 46 89 58T110 94T117 155L139 571Q141 593 142 613T146 649Q129 648 109 647T73 645L76 700H318L316 656Q287 655 271 645T249 612T240 552L232 385H308L424 560Q440 583 460 609T500 650Q484 649 468
649T437 647L440 700H665L662 656Q627 654 596 644T535 609T470 532L364 377Q389 361 405 341T436 300L537 153Q567 110 589 86T632 53T673 44L671 0H541Q532 0 516 15T482 53T446 99L342 255Q327 278 310 300T276 332Q267 332 254 332T229 332L218 134Q217 107
215 86T211 51Q228 53 248 53T284 55L281 0H39Z" />
<glyph unicode="L" horiz-adv-x="587" d="M317 700L315 656Q284 655 269 643T248 607T240 545L218 131Q217 104 215 84T210 50L380 52Q441 53 476 92T516 218H561L543 0H38L41 44Q74 46 89 58T109 94T116 155L139 571Q141 593 142 613T146 649Q129 648 110 647T74
645L75 700H317Z" />
<glyph unicode="M" horiz-adv-x="935" d="M409 -10L253 414Q245 438 237 461T221 512T204 574H202Q201 519 198 471T191 378L170 138Q169 114 166 91T161 51Q179 53 200 53T237 55L233 0H31L33 44Q62 45 76 55T98 85T107 134L146 562Q148 585 150 607T155 649Q137
648 117 648T81 646L84 700H255L403 297Q419 255 433 214T461 131H463Q476 161 492 197T520 263Q551 334 585 408T654 556T718 700H892L889 656Q865 656 849 648T824 617T815 554V123Q815 102 814 84T811 51Q829 53 849 53T885 55L882 0H642L645 44Q671 46 686
54T709 85T716 152L717 451Q718 465 718 484T718 526T718 567H717L678 478L458 -10H409Z" />
<glyph unicode="N" horiz-adv-x="765" d="M583 -11L257 450Q242 473 226 495T194 541H193L177 147Q176 122 175 97T170 51Q187 53 207 53T243 55L240 0H42L44 44Q72 44 87 55T108 84T116 126L136 551Q138 578 139 603T143 649Q127 648 108 647T73 645L76 700H207L514
270Q536 239 555 211T592 158H594L613 571Q615 594 617 614T621 649Q603 648 583 647T547 645L550 700H749L746 656Q714 655 699 643T679 607T672 545L644 -11H583Z" />
<glyph unicode="O" horiz-adv-x="779" d="M411 716Q500 716 563 685T666 601T724 487T741 363Q740 299 717 233T648 111T535 19T376 -16Q286 -16 223 15T120 97T63 210T46 335Q47 407 72 475T144 597T259 684T411 716ZM402 667Q343 666 299 638T224 564T178 462T161
353Q160 304 171 249T208 144T277 65T384 34Q445 34 490 62T564 136T609 238T625 346Q626 409 613 466T572 569T502 640T402 667Z" />
<glyph unicode="P" horiz-adv-x="609" d="M316 702Q410 702 473 679T569 611T599 496Q598 456 582 415T528 339T430 282T275 260Q265 259 252 259T225 260L218 134Q217 107 215 86T211 51Q225 52 241 53T272 54T300 56L298 0H39L42 44Q74 46 89 58T110 94T117
155L139 571Q141 593 142 613T146 649Q129 648 109 647T73 645L76 700Q135 701 194 701T316 702ZM312 653Q284 653 269 642T248 609T240 550L228 313Q244 312 257 311T286 310Q343 310 387 331T457 392T486 487Q488 535 476 567T439 618T382 645T312 653Z" />
<glyph unicode="Q" horiz-adv-x="780" d="M411 716Q500 716 563 685T666 601T724 487T741 363Q740 309 723 252T673 144T590 53T472 -3V-4Q501 -4 524 -7T570 -23T623 -64Q662 -101 686 -123T724 -156T750 -170T776 -174L774 -218H739Q700 -218 674 -215T626 -201T574
-163Q539 -131 514 -104T469 -58T426 -27T373 -16Q284 -16 221 15T119 97T63 211T46 335Q47 407 72 475T144 597T259 684T411 716ZM402 665Q343 665 299 637T224 563T178 462T161 353Q160 304 171 249T208 145T277 66T384 36Q445 36 490 63T564 137T609 238T625
346Q627 409 614 466T572 568T502 639T402 665Z" />
<glyph unicode="R" horiz-adv-x="644" d="M320 702Q414 702 473 679T560 613T582 508Q580 469 562 430T503 360T391 313Q405 299 413 292T428 277T440 261T457 233L513 139Q531 109 545 88T579 56T627 44L624 0H489Q468 17 449 45T410 105L347 217Q336 238 323
260T293 299Q284 299 270 299T244 299T227 299L218 134Q217 107 215 86T211 51Q223 52 236 52T263 54T287 55L285 0H39L42 44Q74 46 89 58T110 94T117 155L139 571Q140 593 142 613T146 649Q129 648 109 647T73 645L76 700Q137 701 197 701T320 702ZM314 653Q284
653 269 642T248 609T240 550L230 351Q244 350 257 349T287 348Q342 349 382 365T446 416T471 506Q474 547 463 575T431 620T380 645T314 653Z" />
<glyph unicode="S" horiz-adv-x="577" d="M278 -16Q239 -16 191 -6T104 29L106 -8H46L53 212H101Q104 152 128 113T193 55T285 36Q323 36 354 49T406 89T428 150Q431 195 406 224T340 275T257 315Q205 339 161 366T90 434T67 534Q69 562 80 593T117 652T185 698T289
716Q328 716 374 705T458 666L457 708H517L505 484H459Q457 535 438 576T383 641T292 665Q236 665 201 634T164 558Q162 522 180 496T232 449T310 409Q348 391 388 372T461 326T513 264T530 177Q527 121 496 77T409 9T278 -16Z" />
<glyph unicode="T" horiz-adv-x="640" d="M638 700L633 484H585Q588 541 578 579T541 636T466 654L394 653L364 134Q363 107 361 86T356 51Q369 52 383 52T412 54T438 55L435 0H185L187 44Q217 46 232 58T253 94T262 155L291 653L207 652Q146 652 116 611T80 484H34L51
700H638Z" />
<glyph unicode="U" horiz-adv-x="748" d="M747 700L745 656Q713 655 698 643T677 607T670 545L656 306Q652 234 633 175T578 73T489 7T366 -16Q285 -16 232 6T149 71T109 178T102 325L115 565Q117 591 119 611T124 649Q106 648 86 648T50 646L53 700H296L294 656Q264
656 249 645T227 616T219 574L206 314Q203 256 210 208T236 123T292 68T383 47Q449 47 493 77T562 163T592 295L608 571Q610 593 612 613T616 649Q599 648 579 647T543 645L545 700H747Z" />
<glyph unicode="V" horiz-adv-x="677" d="M706 700L703 656Q663 654 638 632T590 555Q582 537 574 517T553 469T525 402T485 306T429 173T352 -9H309L111 525Q95 567 88 597T79 647Q64 646 51 646T24 645L26 700H275L273 655Q227 654 212 630T214 558L296 327Q315
276 331 231T359 150H361Q375 183 388 217T418 292Q446 360 467 410T504 499T533 569Q546 600 554 619T570 649Q552 648 531 647T493 645L495 700H706Z" />
<glyph unicode="W" horiz-adv-x="999" d="M265 -9L114 526Q101 569 93 598T83 647Q69 646 55 646T28 645L31 700H288L286 656Q235 654 220 634T217 558L276 327Q287 286 297 249T318 164H319Q325 180 333 203T349 249T365 293T376 324L513 701H561L662 327Q674
286 684 244T705 158H706Q717 188 730 222T756 291Q776 350 791 392T818 465T838 520T856 569Q863 588 872 609T894 648Q876 647 854 647T815 645L818 700H1028L1026 656Q1004 654 987 648T957 627T930 588T901 522L699 -9H653L543 373Q530 420 522 454T507 521H504Q493
487 482 455T459 389L311 -9H265Z" />
<glyph unicode="X" horiz-adv-x="668" d="M7 0L10 44Q51 53 80 82T148 160L282 335Q233 406 198 457T136 546Q113 580 102 602T82 647Q67 646 56 646T31 645L34 700H308L305 656Q260 655 241 648T222 625T242 578L346 421L443 549Q469 582 490 608T526 649Q507
648 485 647T445 645L448 700H655L653 656Q624 652 597 633T545 586T494 526L379 375L547 140Q563 118 578 97T606 53Q621 54 633 54T658 55L655 0H392L395 44Q431 43 443 54T453 81T437 115L316 288L212 149Q192 122 174 98T135 50Q154 52 175 53T214 55L211 0H7Z"
/>
<glyph unicode="Y" horiz-adv-x="649" d="M201 0L204 44Q237 46 252 58T272 94T279 155L284 260L122 540Q102 575 91 602T79 647Q63 646 50 646T22 645L24 700H291L289 656Q248 657 230 645T211 611T228 558Q245 529 266 493T306 424Q313 413 321 399T338 369T354
339H355Q366 359 379 381T406 430Q426 466 446 499T486 567Q492 577 501 592T520 622T540 648Q522 647 501 647T462 645L464 700H674L672 656Q627 652 596 624T529 534L389 292L380 134Q379 107 377 86T373 51Q386 52 400 52T429 54T455 55L452 0H201Z" />
<glyph unicode="Z" horiz-adv-x="609" d="M27 0L30 56L395 559Q413 585 429 607T466 652L237 651Q179 650 146 613T107 491H63L80 700H579L577 652L212 143Q189 111 171 89T133 48L358 49Q421 50 464 87T512 208H557L540 0H27Z" />
<glyph unicode="[" horiz-adv-x="370" d="M390 755L386 694L192 691L131 -191L332 -194L327 -255H41L107 755H390Z" />
<glyph unicode="\" horiz-adv-x="787" d="M677 -271L47 714L111 758L732 -232L677 -271Z" />
<glyph unicode="]" horiz-adv-x="370" d="M-27 -255L-23 -194L171 -191L232 691L31 694L36 755H322L256 -255H-27Z" />
<glyph unicode="^" horiz-adv-x="823" d="M652 437L413 668L151 441H53L375 716H464L756 437H652Z" />
<glyph unicode="_" horiz-adv-x="752" d="M45 -50L660 -54L658 -121H43L45 -50Z" />
<glyph unicode="`" horiz-adv-x="252" d="M175 574L69 681Q53 698 49 713T47 740T58 760Q66 766 78 768T104 764T129 736L207 601L175 574Z" />
<glyph unicode="a" horiz-adv-x="548" d="M328 511Q358 511 394 506T466 493Q459 440 451 383T437 271T426 172T421 103Q421 84 424 69T444 53Q460 53 478 73T510 144L547 135Q543 116 534 92T508 44T469 5T414 -11Q376 -11 357 12T338 79Q338 103 342 131T351
188H349Q327 124 303 85T255 25T208 -3T162 -11Q108 -11 71 30T33 166Q33 235 51 297T107 408T200 483T328 511ZM295 465Q256 465 226 443T176 380T145 288T135 175Q135 119 147 84T191 48Q216 48 240 73T286 142T324 238T350 348T361 455Q349 460 332 462T295
465Z" />
<glyph unicode="b" horiz-adv-x="512" d="M205 755Q201 727 197 693T189 628T183 574Q180 541 176 502T168 418T158 330H160Q179 389 201 425T248 479T295 504T338 511Q386 511 415 485T456 416T469 325Q469 256 454 196T406 89T321 16T194 -11Q178 -11 154 -9T103
-2T54 12Q59 104 63 178T72 319T81 457T93 613Q94 636 95 649T99 679Q82 678 63 677T28 675L32 727Q77 727 104 731T145 742T168 755H205ZM306 449Q281 448 257 424T214 359T179 267T155 160T145 53Q155 43 174 39T210 34Q251 35 278 53T323 103T350 172T363 248T366
321Q366 384 351 417T306 449Z" />
<glyph unicode="c" horiz-adv-x="471" d="M276 511Q320 511 355 496T410 454T430 393Q430 368 417 353T381 337Q354 336 343 353T332 384Q332 393 334 403T344 423Q339 445 320 455T275 466Q236 466 210 444T168 385T147 309T139 232Q139 167 153 128T192 71T248
52Q272 52 298 62T351 97T396 171L438 150Q412 90 379 55T307 4T229 -11Q141 -11 88 42T35 208Q35 256 49 309T93 408T168 482T276 511Z" />
<glyph unicode="d" horiz-adv-x="558" d="M174 -11Q127 -11 96 14T50 83T35 179Q35 276 66 351T161 468T321 511Q333 511 348 510T374 508Q379 547 382 580T390 639T397 679Q380 678 361 677T325 675L329 727Q374 727 400 731T442 742T465 755H502Q493 692 484
614T462 430Q455 364 448 301T436 185T431 98Q431 80 435 67T454 53Q469 53 486 73T518 144L556 135Q553 116 543 92T517 44T478 5T424 -11Q387 -11 367 12T346 79Q346 105 349 130T357 185H355Q329 105 298 63T235 5T174 -11ZM200 51Q230 51 258 83T308 168T345
285Q352 320 357 362T368 456Q355 461 338 463T305 465Q266 465 238 447T190 400T159 334T142 261T137 191Q137 129 152 90T200 51Z" />
<glyph unicode="e" horiz-adv-x="475" d="M281 511Q320 511 352 500T405 462T425 392Q425 351 398 322T328 273T235 243T139 225Q139 165 152 127T188 71T245 53Q270 53 297 64T351 99T398 166L439 144Q411 88 378 54T307 4T225 -11Q131 -11 83 46T35 206Q35 260
50 314T95 413T172 484T281 511ZM268 466Q226 466 200 438T159 364T141 271Q194 279 237 296T305 340T330 400Q330 430 314 448T268 466Z" />
<glyph unicode="f" horiz-adv-x="334" d="M320 760Q360 761 381 745T403 701Q403 692 399 681T384 662T356 654Q336 654 324 669T313 708Q310 709 303 710T289 711Q267 710 253 692T231 645T217 579T208 500H345L341 451L204 449Q203 417 201 380T196 303T190
225T183 154Q177 90 169 28T148 -88T111 -183T52 -247T-38 -271Q-79 -271 -100 -256T-122 -212Q-122 -203 -117 -192T-102 -172T-74 -164Q-54 -165 -42 -179T-31 -215Q-22 -221 -8 -221Q21 -221 37 -191T61 -107T74 15T86 160Q89 192 91 229T97 305T103 380T109
448L24 447L30 500H116Q126 574 148 632T212 725T320 760Z" />
<glyph unicode="g" horiz-adv-x="519" d="M169 -271Q144 -271 118 -266T69 -251T31 -223T16 -181Q16 -166 22 -153T40 -131T69 -122Q90 -122 105 -135T120 -174Q120 -187 114 -201Q123 -214 142 -220T176 -226Q228 -226 257 -199T302 -125T325 -24Q334 33 339
87T353 188H350Q330 125 308 86T263 26T217 -3T170 -11Q128 -11 98 12T51 79T34 179Q34 245 51 304T104 411T195 484T326 511Q358 511 395 506T461 493Q458 441 454 381T445 257T434 135T425 23Q417 -73 386 -138T301 -237T169 -271ZM198 50Q224 50 248 76T292
145T328 241T354 349T366 454Q356 460 340 462T307 465Q259 465 226 441T173 377T145 288T136 189Q136 149 142 118T162 68T198 50Z" />
<glyph unicode="h" horiz-adv-x="573" d="M427 -11Q377 -11 359 15T341 91Q341 119 345 157T355 237T364 320T369 394Q369 407 366 419T353 440T328 449Q304 449 280 426T233 362T192 270T164 165T154 59Q154 45 154 29T156 0H59Q57 12 57 18T57 33Q57 68 59 123T66
245T76 380T88 509T101 612Q104 635 106 649T111 679L41 675L45 727Q90 727 116 731T158 742T180 755H218Q214 729 209 695T199 629T191 574Q189 554 186 521T178 450T169 375T162 312H164Q195 393 226 436T290 495T353 511Q414 511 440 472T467 373Q467 324 460
271T447 171T440 93Q440 75 444 64T463 53Q478 53 495 73T527 144L562 134Q559 116 549 91T523 43T482 5T427 -11Z" />
<glyph unicode="i" horiz-adv-x="331" d="M141 511Q186 511 207 482T228 403Q228 375 223 336T210 252T197 166T192 90Q192 71 198 62T217 53Q233 53 250 73T282 144L319 135Q315 114 305 89T279 41T239 4T186 -11Q137 -11 116 15T94 89Q94 128 99 169T112 251T125
331T131 408Q131 422 126 434T107 447Q92 447 74 427T42 356L5 365Q9 384 19 408T45 456T85 495T141 511ZM191 739Q217 739 234 721T250 673Q250 645 232 627T188 609Q162 609 145 627T128 673Q129 702 147 720T191 739Z" />
<glyph unicode="j" horiz-adv-x="299" d="M148 511Q192 511 214 484T236 404Q236 360 234 299T226 173Q220 114 211 52T186 -67T144 -171T77 -244T-22 -271Q-54 -271 -79 -256T-105 -210Q-105 -198 -100 -186T-84 -166T-56 -158Q-35 -158 -21 -174T-11 -218Q-5
-222 7 -222Q32 -222 50 -196T82 -129T104 -39T119 54T127 134T131 182Q136 241 138 302T138 409Q138 424 132 435T113 445Q99 445 83 424T52 353L15 362Q19 381 28 406T53 456T92 495T148 511ZM190 739Q216 739 233 721T249 673Q249 645 231 627T187 609Q161 609
144 627T127 673Q128 702 146 720T190 739Z" />
<glyph unicode="k" horiz-adv-x="519" d="M379 -11Q339 -11 313 19T260 119Q244 162 232 183T196 208Q190 209 185 209T173 209Q163 172 158 132T153 58Q153 43 153 28T155 0H57Q56 12 56 18T55 34Q55 56 57 104T64 217T74 352T87 491T102 612Q106 636 108 649T113
679Q97 678 78 677T43 675L47 727Q92 727 118 731T159 742T181 755H218Q213 726 209 693T200 626T191 564Q184 503 177 442T165 322H168Q195 396 225 437T287 494T352 511Q387 511 409 497T441 458T452 404Q452 370 433 333T371 265T260 221V220Q298 219 316 202T348
153Q359 130 368 109T388 75T411 59Q426 59 437 72T458 124L495 115Q489 84 474 55T436 8T379 -11ZM180 249Q268 249 313 289T358 401Q358 414 356 427T344 450T318 458Q295 456 269 429T220 355T180 249Z" />
<glyph unicode="l" horiz-adv-x="290" d="M224 755Q221 728 216 698T207 638T200 585Q192 525 186 466T173 351T163 247T157 160T154 98Q154 79 158 66T177 53Q192 53 209 73T242 144L278 134Q274 115 264 90T238 42T197 4T141 -11Q102 -11 80 10T58 75Q57 104
60 151T68 255T79 375T93 498T108 612Q112 636 114 650T118 679Q101 678 82 677T47 675L52 727Q97 727 123 731T164 742T187 755H224Z" />
<glyph unicode="m" horiz-adv-x="877" d="M729 -11Q679 -11 662 15T644 91Q644 119 649 157T660 236T672 319T677 394Q677 407 674 419T661 440T635 449Q611 449 587 425T541 359T504 267T478 163T469 61Q469 47 469 31T471 0H372Q371 12 371 21T370 40Q370 79
375 128T386 229T398 324T402 397Q401 416 393 432T361 449Q336 449 312 425T267 358T228 265T202 161T192 59Q192 45 193 29T195 0H96Q95 12 95 18T94 33Q94 51 96 75T102 134T112 222Q118 271 122 302T128 353T131 385T132 408Q132 426 128 436T110 447Q95 447
77 427T45 356L8 365Q12 384 21 408T46 456T85 495T139 511Q169 511 186 498T210 460T217 403Q216 378 212 355T205 312H207Q236 393 267 436T329 495T387 511Q425 511 447 494T480 451T491 397Q491 375 489 359T479 314H481Q511 395 542 437T603 495T662 511Q703
511 727 493T761 443T772 373Q772 324 765 271T750 171T742 93Q742 75 746 64T765 53Q780 53 798 73T830 144L867 134Q864 116 853 91T826 43T785 5T729 -11Z" />
<glyph unicode="n" horiz-adv-x="613" d="M466 -11Q417 -11 399 15T381 91Q381 119 385 157T395 236T405 319T410 394Q410 407 407 419T395 440T369 449Q345 449 320 425T272 358T231 265T203 161T192 59Q192 45 192 29T194 0H95Q94 12 94 18T94 33Q94 52 96 76T102
137T113 226Q118 274 121 304T127 354T131 386T132 408Q132 426 127 436T109 447Q95 447 77 427T44 356L7 365Q11 384 20 408T46 456T85 495T139 511Q169 511 186 496T210 455T216 395Q215 370 211 349T204 309H206Q237 389 268 433T332 494T395 511Q436 511 460
493T496 443T507 373Q507 324 500 271T486 171T479 93Q479 75 483 64T502 53Q517 53 534 73T567 144L603 134Q600 116 590 91T563 43T522 5T466 -11Z" />
<glyph unicode="o" horiz-adv-x="519" d="M284 511Q338 511 382 486T451 411T477 291Q477 211 448 142T363 31T230 -11Q164 -11 121 19T56 100T35 214Q35 295 65 362T151 470T284 511ZM269 464Q229 465 201 436T156 356T139 245Q139 213 143 177T159 109T191 57T242
36Q277 36 301 57T341 113T364 187T373 260Q374 293 370 328T355 394T323 444T269 464Z" />
<glyph unicode="p" horiz-adv-x="572" d="M37 -255V-213Q64 -213 76 -197T92 -153T99 -90Q107 6 114 88T127 234T136 341T139 402Q139 421 136 434T116 447Q102 447 85 427T52 356L15 365Q18 384 27 408T53 456T92 495T146 511Q187 511 205 484T224 411Q224 384
221 360T214 315H216Q243 396 272 438T333 496T392 511Q438 511 469 486T515 416T531 318Q531 222 499 148T402 31T240 -11Q230 -11 219 -11T198 -9Q194 -75 192 -113T188 -172T184 -205Q200 -204 217 -204T248 -202V-255H37ZM256 34Q295 34 324 51T373 98T405
164T423 237T428 306Q428 349 422 381T403 431T365 449Q341 449 317 425T273 357T237 259T213 143Q209 120 207 96T202 44Q216 39 229 37T256 34Z" />
<glyph unicode="q" horiz-adv-x="519" d="M325 511Q344 511 369 509T421 505T466 499Q461 432 454 354T440 192T425 28T413 -120Q412 -138 410 -162T404 -205Q420 -204 437 -204T469 -202V-255H258V-213Q288 -213 300 -195T315 -143T323 -60Q327 -1 333 59T348
174H345Q319 96 290 57T231 4T173 -11Q127 -12 96 13T50 82T34 176Q34 271 66 346T163 466T325 511ZM310 466Q261 466 228 441T175 374T146 285T137 190Q138 125 154 88T202 51Q228 51 251 76T296 144T333 240T359 349T371 458Q359 463 343 464T310 466Z" />
<glyph unicode="r" horiz-adv-x="456" d="M98 0Q97 12 97 18T96 33Q96 52 97 77T103 140T113 230Q119 286 123 318T129 370T132 399Q132 418 129 432T109 447Q95 447 77 427T44 356L7 365Q11 384 20 408T46 456T85 495T139 511Q179 511 198 484T215 405Q215 385
211 360T202 306H204Q233 389 263 433T325 494T385 511Q418 511 439 494T460 447Q460 426 446 409T407 392Q387 392 373 404T358 438Q333 442 310 419T266 354T229 260T204 154T195 53Q195 38 195 26T197 0H98Z" />
<glyph unicode="s" horiz-adv-x="434" d="M193 -11Q151 -11 113 2T51 40T27 99Q27 124 41 139T77 155Q99 155 112 141T125 106Q125 99 123 92T117 76Q124 58 147 47T193 36Q244 36 267 59T291 120Q291 144 274 163T229 199T173 233Q138 254 110 274T66 318T50
373Q50 409 72 440T134 491T229 511Q268 511 303 499T361 464T384 409Q384 386 370 371T335 356Q314 356 301 370T288 403Q288 411 290 418T296 434Q290 449 272 458T226 467Q206 467 187 459T155 435T142 397Q142 380 152 366T181 338T228 306Q263 286 300 263T362
210T387 138Q387 95 362 61T294 8T193 -11Z" />
<glyph unicode="t" horiz-adv-x="374" d="M229 644L210 500H358L354 452L206 450Q202 410 197 367T187 281T181 201T178 135Q178 118 180 99T193 68T225 55Q234 55 249 59T282 77T318 123L352 101Q321 45 283 17T193 -11Q149 -11 125 7T91 56T82 122Q82 158 85
210T94 323T107 449L21 448L26 500Q96 500 130 537T181 644H229Z" />
<glyph unicode="u" horiz-adv-x="595" d="M209 -11Q168 -11 144 7T108 57T96 127Q96 177 103 229T118 329T126 407Q126 425 122 436T103 447Q89 447 72 427T40 356L4 365Q7 384 17 408T43 456T83 495T139 511Q184 511 204 485T224 409Q224 380 220 340T209 258T199
176T194 107Q194 95 197 82T209 60T234 51Q259 51 283 75T328 142T367 235T395 339T405 441Q405 455 405 471T402 500H501Q503 488 503 482T503 467Q503 448 501 423T495 360T484 270Q478 222 475 192T469 144T466 114T465 92Q465 75 470 65T487 54Q502 54 520
74T552 144L589 135Q585 116 576 92T551 44T512 5T458 -11Q420 -11 399 12T378 79Q378 105 382 132T392 190H390Q359 110 330 66T271 6T209 -11Z" />
<glyph unicode="v" horiz-adv-x="525" d="M362 511Q403 511 430 487T470 424T484 338T471 244Q461 200 439 155T384 73T311 12T223 -11Q181 -11 155 7T117 56T105 126Q104 163 107 203T113 282T120 354T123 407Q123 425 118 435T99 446Q85 446 69 426T38 354L1
364Q5 383 14 408T40 456T79 495T134 511Q165 512 184 499T212 463T222 409Q222 378 220 339T213 258T207 181T203 120Q203 106 205 90T216 62T247 50Q273 50 300 67T352 112T395 177T421 256Q425 273 427 298T428 350T417 398T390 428Q383 417 372 412T348 406Q332
406 316 417T299 454Q299 466 305 479T325 501T362 511Z" />
<glyph unicode="w" horiz-adv-x="799" d="M638 511Q679 511 705 487T745 424T758 338T745 244Q734 196 710 151T652 69T575 11T483 -11Q452 -11 427 4T390 52T382 138Q368 92 340 59T279 7T211 -11Q151 -11 126 28T101 128Q101 163 104 203T113 282T122 354T126
407Q126 425 121 436T102 447Q88 447 71 427T39 356L3 365Q6 384 16 408T42 456T82 495T138 511Q169 511 188 498T215 462T224 408Q224 375 220 333T211 248T202 167T198 108Q198 96 201 82T212 59T236 49Q262 49 286 68T329 120T363 197T385 293T393 401Q393 423
392 449T388 500H488Q490 488 490 476T491 454Q491 410 487 364T477 273T467 189T462 120Q462 95 471 72T511 49Q539 49 567 64T622 108T667 175T694 256Q698 273 701 298T702 350T691 398T664 428Q657 417 646 412T621 406Q606 406 590 417T573 455Q573 467 579
480T599 502T638 511Z" />
<glyph unicode="x" horiz-adv-x="544" d="M83 -11Q52 -11 34 5T15 46Q15 70 30 85T64 100Q87 100 96 87T108 60Q131 60 159 103T223 252Q204 301 192 336T168 398Q158 420 149 429T128 439Q111 440 97 422T79 349L41 351Q42 372 47 399T66 451T102 494T161 511Q198
511 217 490T252 430Q260 410 268 386T287 328Q312 389 335 426T380 481T419 505T451 511Q481 511 496 495T511 456Q511 436 497 421T462 406Q442 406 432 416T416 433Q403 429 388 414T354 364T309 268Q328 218 344 180T375 115T403 75T428 61Q444 61 456 78T474
138L512 133Q509 109 502 84T483 37T450 2T399 -11Q374 -11 356 -3T323 26T289 87T246 188H245Q222 121 201 81T159 21T120 -5T83 -11Z" />
<glyph unicode="y" horiz-adv-x="530" d="M84 -271Q46 -270 24 -251T1 -203Q1 -177 17 -163T50 -149Q98 -149 99 -202Q104 -204 108 -205T117 -207Q137 -207 159 -192T201 -153T236 -107T259 -70Q251 -16 238 43T207 163T171 280T130 385Q123 401 112 419T82 437Q65
435 54 412T44 342H4Q3 368 7 397T24 452T59 494T115 511Q148 511 170 494T207 452T231 401Q248 356 267 294T301 165T324 37H326Q352 85 374 138T410 246T425 347Q425 368 422 388T411 418Q407 416 402 415T389 414Q369 414 356 427T342 459Q342 485 359 498T397
511Q430 511 448 492T475 442T484 379Q484 321 467 255T421 121T358 -11Q312 -95 266 -154T175 -242T84 -271Z" />
<glyph unicode="z" horiz-adv-x="478" d="M54 -11L18 19Q42 55 75 100T145 192T213 279Q243 316 266 343T310 394T356 444H355Q324 415 299 407T252 400Q231 401 213 407T176 420T137 427Q119 427 103 414T87 371Q87 353 94 334L59 323Q54 338 50 356T46 393Q46
426 60 452T100 495T159 511Q189 511 214 503T266 488T321 480Q333 480 358 485T408 512L442 480Q424 456 395 421T330 341T258 250Q208 185 169 141T92 54H93Q122 83 150 94T212 106Q237 106 258 99T300 83T342 75Q359 75 375 85T392 126Q392 134 391 144T384
165L419 177Q424 161 428 144T432 107Q432 74 418 48T379 5T321 -11Q292 -11 261 -3T200 14T139 23Q121 23 100 17T54 -11Z" />
<glyph unicode="{" horiz-adv-x="336" d="M350 760L348 715Q298 717 269 700T227 647T211 558Q211 545 211 523T213 476T215 427T215 388Q213 329 181 299T103 257V256Q147 245 175 213T202 122Q201 106 198 83T191 32T184 -19T180 -61Q178 -111 188 -150T226
-210T301 -230L298 -271Q288 -271 281 -271T263 -271Q196 -271 159 -244T107 -167T94 -49Q95 -31 97 -7T103 44T109 95T113 137Q115 182 99 205T33 228H2L6 285H36Q86 285 104 306T126 372Q126 387 126 408T125 455T124 503T124 546Q126 617 144 664T204 736T315
760Q324 760 331 760T350 760Z" />
<glyph unicode="|" horiz-adv-x="235" d="M183 760L125 -271H48L99 760H183Z" />
<glyph unicode="}" horiz-adv-x="336" d="M-22 -271L-19 -226Q31 -227 59 -210T101 -158T117 -69Q118 -56 117 -34T115 13T113 62T113 101Q116 160 148 190T225 232V233Q182 245 153 277T127 367Q127 383 130 406T137 457T144 508T148 550Q150 600 140 639T103
699T27 719L30 760Q41 760 48 760T65 760Q133 760 170 733T222 656T234 538Q233 520 231 496T225 445T219 395T215 352Q214 307 230 284T295 261H326L322 204H292Q243 204 224 183T203 117Q202 102 202 81T203 34T204 -14T205 -57Q203 -127 184 -175T124 -247T14
-271Q4 -271 -3 -271T-22 -271Z" />
<glyph unicode="~" horiz-adv-x="530" d="M366 221Q329 221 304 232T260 258T219 284T168 296Q127 296 99 282T42 248L46 329Q79 355 108 368T176 382Q215 382 239 372T281 347T317 321T363 307Q399 304 432 317T492 354L488 273Q466 251 436 236T366 221Z" />
<glyph unicode="&#xa0;" horiz-adv-x="263" />
<glyph unicode="&#xa1;" horiz-adv-x="247" d="M93 -216Q70 -216 57 -204T40 -174T37 -137L96 276H143L158 -137Q159 -165 143 -190T93 -216ZM124 378Q97 378 81 398T65 447Q67 476 87 496T133 516Q158 516 175 496T191 447Q190 419 170 399T124 378Z" />
<glyph unicode="&#xa2;" horiz-adv-x="484" d="M334 623L323 507Q373 497 403 466T434 393Q434 368 421 353T385 337Q357 336 346 353T335 384Q335 393 337 403T347 423Q343 445 324 455T279 466Q240 466 214 444T172 386T150 309T143 232Q142 167 156 128T196
70T252 51Q276 51 302 61T354 99T400 174L442 154Q407 74 361 36T261 -10L249 -131H182L193 -8Q122 2 81 55T39 208Q39 253 51 303T90 397T156 471T251 509L261 623H334Z" />
<glyph unicode="&#xa3;" horiz-adv-x="548" d="M70 -16Q47 -16 37 -3T27 27Q29 55 55 77T118 110Q147 154 147 204T137 308L56 307L60 365H124Q118 392 115 422T114 490Q118 560 146 610T219 688T319 716Q379 716 412 695T459 646T472 595Q472 572 459 556T423
539Q406 538 395 546T380 565T376 584Q376 594 379 606T391 627Q387 641 371 655T325 669Q288 669 263 649T224 596T208 529Q206 482 210 442T220 365H376L373 309L228 308Q232 268 228 235T208 172T164 114Q183 119 199 121T230 123Q255 123 276 117T317 104Q345
92 368 81T411 69Q430 69 444 84T463 130H504Q498 66 469 25T389 -16Q354 -16 324 1T262 37Q238 52 207 65T148 74Q140 36 118 10T70 -16Z" />
<glyph unicode="&#xa4;" horiz-adv-x="554" d="M101 36L53 76L115 142Q86 191 89 254Q91 285 101 315T130 371L74 440L125 481L174 414Q197 431 224 440T284 450Q317 450 343 441T390 414L446 480L494 439L429 370Q445 344 452 315T459 254Q457 224 448 196T420
143L476 76L424 36L376 99Q354 84 326 75T263 65Q230 65 203 74T154 99L101 36ZM267 116Q293 116 311 131T341 171T358 221T365 270Q366 288 363 310T350 354T324 389T282 403Q257 403 239 389T210 354T192 311T185 270Q184 248 186 222T198 171T223 132T267 116Z"
/>
<glyph unicode="&#xa5;" horiz-adv-x="701" d="M229 0L232 44Q260 46 275 54T297 85T306 155L182 154L185 211L309 210L312 269L187 268L191 325L277 324L150 540Q130 575 119 602T107 647Q91 646 78 646T50 645L52 700H319L316 656Q256 657 243 630T256 558Q276
523 294 491T331 427Q337 416 345 402T363 372T381 341H384Q414 394 445 447T514 567Q520 577 529 592T548 622T568 648Q550 647 529 647T490 645L492 700H702L699 656Q655 652 624 624T557 534Q524 479 494 427T435 323H538L535 270L415 269L411 210L533 209L531
156L409 155Q407 127 406 101T400 51Q420 53 442 53T482 55L480 0H229Z" />
<glyph unicode="&#xa6;" horiz-adv-x="257" d="M193 760L170 384H93L110 760H193ZM159 105L136 -271H59L76 105H159Z" />
<glyph unicode="&#xa7;" horiz-adv-x="525" d="M222 -228Q168 -228 128 -209T67 -161T46 -101Q47 -78 60 -60T98 -42Q116 -41 126 -49T140 -68T145 -89Q145 -110 133 -126Q134 -140 147 -152T180 -171T223 -178Q264 -178 289 -165T327 -131T342 -89Q346 -60 336
-37T305 5T259 42T203 79Q171 99 140 121T85 169T47 228T35 303Q37 344 61 389T127 470Q109 495 101 521T93 581Q95 607 106 637T142 696T205 742T296 760Q351 760 390 741T452 693T472 633Q471 611 458 593T420 575Q403 575 393 582T378 600T373 622Q373 632 376
641T385 658Q385 673 372 684T339 703T296 711Q256 711 230 696T192 658T177 614Q175 582 188 557T225 512T276 475T333 439Q377 410 412 381T467 316T485 227Q484 200 472 170T439 111T389 59Q407 38 417 11T425 -54Q424 -79 413 -109T377 -166T315 -211T222 -228ZM360
92Q376 112 385 140T396 194Q398 233 382 262T340 313T281 355T216 394T158 436Q143 416 135 388T125 336Q123 297 138 268T180 216T239 174T303 135T360 92Z" />
<glyph unicode="&#xa8;" horiz-adv-x="372" d="M262 611Q241 611 227 628T212 670Q214 696 230 715T268 734Q291 734 304 717T316 674Q316 648 300 630T262 611ZM106 611Q85 611 71 628T56 670Q58 696 74 715T112 734Q135 734 148 717T160 674Q160 648 144 630T106 611Z" />
<glyph unicode="&#xa9;" horiz-adv-x="881" d="M436 99Q367 99 315 131T234 219T208 343Q210 387 228 432T278 515T358 574T465 596Q500 596 532 586T589 557L588 591H644L635 421H589Q585 484 550 512T467 540Q430 540 394 518T334 454T306 355Q303 303 323 261T381
193T469 167Q503 166 544 185T616 240L649 206Q616 164 578 141T502 108T436 99ZM423 -57Q333 -57 261 -27T139 56T64 184T43 345Q48 429 81 503T171 633T303 720T466 752Q555 752 626 721T748 633T824 503T844 345Q840 261 806 189T714 61T582 -25T423 -57ZM427
-6Q504 -6 566 22T675 99T748 211T778 345Q782 417 762 481T700 594T598 673T461 702Q386 702 323 674T214 597T141 484T109 345Q105 275 125 212T186 99T288 22T427 -6Z" />
<glyph unicode="&#xaa;" horiz-adv-x="403" d="M244 716Q263 716 291 713T341 705Q336 672 331 634T322 559T314 494T311 449Q311 437 313 429T322 420Q331 420 340 430T359 472L385 465Q381 447 371 426T345 391T300 376Q274 376 262 390T250 434Q250 448 253
466T260 502H258Q239 449 219 422T179 385T140 376Q106 376 82 402T58 488Q58 551 79 602T141 685T244 716ZM223 681Q192 680 171 657T141 593T130 499Q129 463 137 445T161 426Q179 424 196 447T229 508T254 590T265 674Q259 677 248 679T223 681Z" />
<glyph unicode="&#xab;" horiz-adv-x="508" d="M274 -9L22 261L23 272L312 551L342 519L129 265V263L308 22L274 -9ZM413 73L237 264L238 274L440 470L470 442L341 273V271L446 102L413 73Z" />
<glyph unicode="&#xac;" horiz-adv-x="530" d="M420 154L424 278L43 276L47 350L494 348L484 154H420Z" />
<glyph unicode="&#xad;" horiz-adv-x="479" d="M421 359L419 284L60 280L62 359H421Z" />
<glyph unicode="&#xae;" horiz-adv-x="881" d="M466 752Q555 752 626 721T748 633T824 503T844 345Q840 261 806 189T714 61T582 -25T423 -57Q333 -57 261 -27T139 56T64 184T43 345Q48 429 81 503T171 633T303 720T466 752ZM461 702Q386 702 323 674T214 597T141
484T109 345Q105 275 125 212T186 99T288 22T427 -6Q504 -6 566 22T675 99T748 211T778 345Q782 417 762 481T700 594T598 673T461 702ZM247 167Q280 169 289 186T299 240L313 499Q314 515 315 528T317 551Q305 550 292 549T267 547L269 592Q296 593 328 594T393
595T452 595Q515 595 554 578T612 530T628 459Q626 435 614 409T576 360T504 326Q518 316 525 308T542 283Q575 230 592 205T622 173T651 165L649 127H560Q546 133 531 152T497 202Q479 232 467 253T447 288T430 314Q420 314 405 314T381 316L376 226Q375 209 374
195T372 172Q383 173 397 173T422 174L421 130H245L247 167ZM384 362Q395 361 405 361T426 361Q453 361 479 371T524 403T545 459Q547 494 531 514T489 542T438 548Q406 546 399 528T389 474L384 362Z" />
<glyph unicode="&#xaf;" horiz-adv-x="365" d="M45 640L48 708H320L316 643L45 640Z" />
<glyph unicode="&#xb0;" horiz-adv-x="386" d="M220 716Q292 716 330 671T366 560Q364 516 341 482T282 427T201 407Q153 407 120 427T70 481T55 560Q58 604 80 639T140 695T220 716ZM215 663Q176 663 150 632T123 560Q121 520 143 491T205 461Q245 461 271 491T298
563Q300 604 278 633T215 663Z" />
<glyph unicode="&#xb1;" horiz-adv-x="530" d="M49 393H495L492 334H46L49 393ZM312 583L288 137H229L253 583H312ZM49 59H495L493 0H47L49 59Z" />
<glyph unicode="&#xb2;" horiz-adv-x="375" d="M209 716Q241 716 269 705T313 672T329 612Q328 591 320 573T296 536T255 496T193 446Q164 425 147 407T121 368L221 366Q242 365 259 366T286 376T297 405H329L319 305H55Q58 348 75 380T119 438T177 490Q221 526
234 557T248 608Q249 638 234 656T191 675Q171 675 156 664T135 640Q142 634 143 626T145 612Q145 601 136 589T109 577Q94 577 85 588T75 614Q75 635 91 659T137 699T209 716Z" />
<glyph unicode="&#xb3;" horiz-adv-x="360" d="M171 301Q115 303 84 330T52 393Q53 410 63 425T93 441Q112 442 120 430T128 405Q128 398 126 390T116 375Q120 358 136 349T172 340Q209 340 230 364T253 420Q254 438 247 457T221 489T171 503Q164 503 156 503T140
502L142 538Q147 538 152 538T162 537Q196 537 214 550T240 581T248 610Q250 639 235 659T186 678Q165 677 152 667T133 643Q139 637 140 630T142 618Q141 607 132 596T105 585Q91 586 82 596T73 622Q73 641 87 663T131 700T201 716Q256 716 288 690T318 616Q317
590 294 564T231 527Q282 522 305 493T328 423Q326 371 285 336T171 301Z" />
<glyph unicode="&#xb4;" horiz-adv-x="257" d="M76 574L45 601L127 736Q140 757 154 764T180 769T200 760Q208 753 210 741T209 713T187 681L76 574Z" />
<glyph unicode="&#xb5;" horiz-adv-x="594" d="M106 -271Q75 -271 65 -247T56 -181L92 500H184L170 237Q168 184 174 142T200 76T258 52Q290 52 319 67T367 109L388 500H479L461 138Q459 112 462 95T472 68T494 58Q502 58 512 62T536 76L552 52Q542 39 525 25T487
1T441 -9Q407 -9 392 10T372 58H371Q311 -11 237 -11Q199 -11 174 7T133 64H131Q131 0 137 -54T150 -149T156 -212Q155 -234 144 -252T106 -271Z" />
<glyph unicode="&#xb6;" horiz-adv-x="512" d="M140 -255L177 406Q145 410 115 425T65 471T49 552Q52 602 74 634T131 683T202 700H443L393 -255H312L360 650L271 648L222 -255H140Z" />
<glyph unicode="&#xb7;" horiz-adv-x="234" d="M123 399Q149 399 165 379T180 331Q179 302 160 283T115 263Q89 263 72 282T56 331Q58 359 78 379T123 399Z" />
<glyph unicode="&#xb8;" horiz-adv-x="305" d="M49 -246L45 -208Q66 -204 88 -199T129 -184T160 -164T172 -137Q172 -117 159 -112T127 -109T96 -122L61 -106L97 9H155L124 -74Q138 -66 157 -61T192 -56Q225 -57 243 -75T259 -123Q257 -155 235 -177T179 -212T111
-234T49 -246Z" />
<glyph unicode="&#xb9;" horiz-adv-x="272" d="M72 308L73 339Q100 339 111 356T123 404L135 637L69 600L54 630L178 716H207L190 386Q189 374 188 363T186 343Q197 344 210 344T235 345L232 308H72Z" />
<glyph unicode="&#xba;" horiz-adv-x="364" d="M216 716Q269 716 305 678T341 570Q341 520 323 474T268 400T182 371Q140 371 112 392T70 447T56 522Q56 574 75 618T131 689T216 716ZM208 680Q173 680 153 640T131 539Q131 508 136 479T154 430T190 410Q217 410
233 432T258 488T266 553Q267 584 262 613T245 661T208 680Z" />
<glyph unicode="&#xbb;" horiz-adv-x="511" d="M229 550L481 280L480 269L191 -10L161 22L374 276V278L195 519L229 550ZM90 468L266 277L265 267L63 71L33 99L162 268V270L57 439L90 468Z" />
<glyph unicode="&#xbc;" horiz-adv-x="743" d="M72 308L73 339Q100 339 111 356T123 404L135 637L69 600L54 630L178 716H207L190 386Q189 374 188 363T186 343Q197 344 210 344T235 345L232 308H72ZM591 716L635 681L139 -16L98 15L591 716ZM519 3L520 35Q547
36 558 50T570 94V106L407 107L409 146L625 415H655L642 149L699 148L696 106H639L635 38L677 40L675 3H519ZM574 150L584 310H583L462 152L574 150Z" />
<glyph unicode="&#xbd;" horiz-adv-x="766" d="M72 308L73 339Q100 339 111 356T123 404L135 637L69 600L54 630L178 716H207L190 386Q189 374 188 363T186 343Q197 344 210 344T235 345L232 308H72ZM586 716L630 681L134 -16L93 15L586 716ZM601 414Q633 414
661 403T705 370T721 310Q720 289 712 271T688 234T647 194T585 144Q556 123 539 105T513 66L613 64Q634 63 651 64T678 74T689 103H721L711 3H447Q450 46 467 78T511 136T569 188Q613 224 626 255T640 306Q641 336 626 354T583 373Q563 373 548 362T527 338Q534
332 535 324T537 310Q537 299 528 287T501 275Q486 275 477 286T467 312Q467 333 483 357T529 397T601 414Z" />
<glyph unicode="&#xbe;" horiz-adv-x="825" d="M171 301Q115 303 84 330T52 393Q53 410 63 425T93 441Q112 442 120 430T128 405Q128 398 126 390T116 375Q120 358 136 349T172 340Q209 340 230 364T253 420Q254 438 247 457T221 489T171 503Q164 503 156 503T140
502L142 538Q147 538 152 538T162 537Q196 537 214 550T240 581T248 610Q250 639 235 659T186 678Q165 677 152 667T133 643Q139 637 140 630T142 618Q141 607 132 596T105 585Q91 586 82 596T73 622Q73 641 87 663T131 700T201 716Q256 716 288 690T318 616Q317
590 294 564T231 527Q282 522 305 493T328 423Q326 371 285 336T171 301ZM666 716L710 681L214 -16L173 15L666 716ZM601 3L602 35Q629 36 640 50T652 94V106L489 107L491 146L707 415H737L724 149L781 148L778 106H721L717 38L759 40L757 3H601ZM656 150L666 310H665L544
152L656 150Z" />
<glyph unicode="&#xbf;" horiz-adv-x="469" d="M242 314Q258 314 276 308T308 287T320 247Q319 227 308 210T276 173T227 129Q202 107 178 83T138 28T120 -42Q117 -76 125 -104T157 -150T223 -167Q248 -167 269 -158T306 -136T326 -109Q316 -101 313 -88T310 -65Q311
-53 317 -41T336 -22T365 -14Q388 -15 402 -30T416 -71Q415 -102 388 -136T314 -193T204 -216Q126 -216 83 -191T24 -127T11 -47Q15 -6 39 28T96 90T162 142T217 187T241 229Q242 241 233 251T202 261Q195 261 186 260T166 255L155 295Q175 306 198 310T242 314ZM246
516Q270 516 287 498T303 451Q302 424 282 405T239 385Q214 385 198 404T183 451Q184 478 203 497T246 516Z" />
<glyph unicode="&#xc0;" horiz-adv-x="643" d="M355 719L544 158Q551 139 559 107T566 51L628 55L626 0H392L394 44Q429 45 440 59T451 95T443 137L418 218L174 212L141 125Q133 105 126 87T108 52L183 56L180 0H-13L-11 45Q15 46 32 61T64 104T93 166L318 719H355ZM310
567Q301 543 290 513T265 449L194 266H403L347 441Q337 473 328 505T310 567ZM377 764L233 854Q213 867 206 880T199 905T208 925Q214 933 225 937T251 938T283 917L404 799L377 764Z" />
<glyph unicode="&#xc1;" horiz-adv-x="643" d="M355 719L544 158Q551 139 559 107T566 51L628 55L626 0H392L394 44Q429 45 440 59T451 95T443 137L418 218L174 212L141 125Q133 105 126 87T108 52L183 56L180 0H-13L-11 45Q15 46 32 61T64 104T93 166L318 719H355ZM310
567Q301 543 290 513T265 449L194 266H403L347 441Q337 473 328 505T310 567ZM308 764L283 799L408 917Q426 934 441 937T467 937T484 925Q491 917 491 905T484 880T456 854L308 764Z" />
<glyph unicode="&#xc2;" horiz-adv-x="643" d="M355 719L544 158Q551 139 559 107T566 51L628 55L626 0H392L394 44Q429 45 440 59T451 95T443 137L418 218L174 212L141 125Q133 105 126 87T108 52L183 56L180 0H-13L-11 45Q15 46 32 61T64 104T93 166L318 719H355ZM310
567Q301 543 290 513T265 449L194 266H403L347 441Q337 473 328 505T310 567ZM512 768L335 857L157 770L141 801L342 945H350L533 801L512 768Z" />
<glyph unicode="&#xc3;" horiz-adv-x="643" d="M355 719L544 158Q551 139 559 107T566 51L628 55L626 0H392L394 44Q429 45 440 59T451 95T443 137L418 218L174 212L141 125Q133 105 126 87T108 52L183 56L180 0H-13L-11 45Q15 46 32 61T64 104T93 166L318 719H355ZM310
567Q301 543 290 513T265 449L194 266H403L347 441Q337 473 328 505T310 567ZM259 849Q238 849 216 836T175 795L139 817Q160 865 195 890T263 917Q291 917 311 908T347 887T380 865T416 856Q441 856 464 872T503 916L537 898Q521 853 500 830T456 797T412 788Q387
788 368 797T332 819T298 840T259 849Z" />
<glyph unicode="&#xc4;" horiz-adv-x="643" d="M355 719L544 158Q551 139 559 107T566 51L628 55L626 0H392L394 44Q429 45 440 59T451 95T443 137L418 218L174 212L141 125Q133 105 126 87T108 52L183 56L180 0H-13L-11 45Q15 46 32 61T64 104T93 166L318 719H355ZM310
567Q301 543 290 513T265 449L194 266H403L347 441Q337 473 328 505T310 567ZM252 785Q230 785 215 803T201 848Q201 877 219 896T260 915Q282 915 296 897T309 852Q308 824 291 805T252 785ZM418 785Q396 785 381 803T367 848Q368 877 385 896T425 915Q448 915
462 897T475 852Q474 824 458 805T418 785Z" />
<glyph unicode="&#xc5;" horiz-adv-x="643" d="M355 719L544 158Q551 139 559 107T566 51L628 55L626 0H392L394 44Q429 45 440 59T451 95T443 137L418 218L174 212L141 125Q133 105 126 87T108 52L183 56L180 0H-13L-11 45Q15 46 32 61T64 104T93 166L318 719H355ZM310
567Q301 543 290 513T265 449L194 266H403L347 441Q337 473 328 505T310 567ZM339 729Q310 729 283 740T239 777T220 840Q219 876 236 903T280 944T337 959Q366 959 393 948T438 912T457 849Q457 811 440 785T396 744T339 729ZM343 766Q362 767 377 785T392 835Q392
881 376 902T335 923Q311 922 298 901T284 849Q284 812 300 789T343 766Z" />
<glyph unicode="&#xc6;" horiz-adv-x="947" d="M-24 0L-22 44Q4 44 25 59T64 96T97 140L472 648Q452 648 429 647T387 645L390 700H886L882 519H838Q841 576 825 606T779 646T715 655L645 653Q614 653 598 643T576 609T567 545L558 388H647Q675 392 692 400T719
427T729 479H777L765 253H721Q723 296 712 314T676 337T614 341Q599 341 585 341T556 339L545 133Q544 106 542 86T537 52L711 50Q750 50 781 64T832 112T854 203H899L882 0H366L368 46Q396 47 411 55T434 84T443 138L447 216Q391 215 333 214T219 211L176 153Q157
127 138 102T99 52V51L177 55L175 0H-24ZM257 265H449L466 555H465Q451 534 437 515T409 475T377 431L257 265Z" />
<glyph unicode="&#xc7;" horiz-adv-x="687" d="M411 716Q461 716 508 702T598 660H599L598 710H659L647 478H601Q595 568 547 617T416 666Q364 666 319 643T239 578T185 480T161 356Q156 265 185 195T268 84T394 44Q457 44 521 72T631 160L661 133Q613 72 560
40T457 -4T365 -16Q289 -16 229 11T126 86T63 199T46 339Q50 409 74 476T144 597T257 684T411 716ZM283 -259L277 -219Q298 -215 320 -208T362 -191T393 -168T407 -140Q408 -124 399 -117T375 -110Q363 -110 351 -113T329 -125L294 -108L330 9H395L363 -72Q377
-64 398 -60T431 -55Q467 -56 485 -76T501 -127Q499 -159 475 -182T416 -221T346 -246T283 -259Z" />
<glyph unicode="&#xc8;" horiz-adv-x="620" d="M560 700L556 519H512Q515 576 498 606T452 646T388 655L319 653Q287 653 271 643T249 609T240 545L232 388H319Q347 392 365 400T392 427T402 479H450L439 253H395Q397 296 386 315T349 338T287 341L229 339L218
131Q217 104 215 84T211 50L383 52Q422 53 453 66T504 113T527 203H572L556 0H39L42 44Q74 46 89 58T109 94T117 155L139 571Q141 593 143 613T147 649Q130 648 110 647T73 645L76 700H560ZM403 764L259 854Q239 867 232 880T225 905T234 925Q240 933 251 937T277
938T309 917L430 799L403 764Z" />
<glyph unicode="&#xc9;" horiz-adv-x="620" d="M560 700L556 519H512Q515 576 498 606T452 646T388 655L319 653Q287 653 271 643T249 609T240 545L232 388H319Q347 392 365 400T392 427T402 479H450L439 253H395Q397 296 386 315T349 338T287 341L229 339L218
131Q217 104 215 84T211 50L383 52Q422 53 453 66T504 113T527 203H572L556 0H39L42 44Q74 46 89 58T109 94T117 155L139 571Q141 593 143 613T147 649Q130 648 110 647T73 645L76 700H560ZM334 764L309 799L434 917Q452 934 467 937T493 937T510 925Q517 917 517
905T510 880T482 854L334 764Z" />
<glyph unicode="&#xca;" horiz-adv-x="620" d="M560 700L556 519H512Q515 576 498 606T452 646T388 655L319 653Q287 653 271 643T249 609T240 545L232 388H319Q347 392 365 400T392 427T402 479H450L439 253H395Q397 296 386 315T349 338T287 341L229 339L218
131Q217 104 215 84T211 50L383 52Q422 53 453 66T504 113T527 203H572L556 0H39L42 44Q74 46 89 58T109 94T117 155L139 571Q141 593 143 613T147 649Q130 648 110 647T73 645L76 700H560ZM539 768L362 857L184 770L168 801L369 945H377L560 801L539 768Z" />
<glyph unicode="&#xcb;" horiz-adv-x="620" d="M560 700L556 519H512Q515 576 498 606T452 646T388 655L319 653Q287 653 271 643T249 609T240 545L232 388H319Q347 392 365 400T392 427T402 479H450L439 253H395Q397 296 386 315T349 338T287 341L229 339L218
131Q217 104 215 84T211 50L383 52Q422 53 453 66T504 113T527 203H572L556 0H39L42 44Q74 46 89 58T109 94T117 155L139 571Q141 593 143 613T147 649Q130 648 110 647T73 645L76 700H560ZM278 785Q256 785 241 803T227 848Q227 877 245 896T286 915Q308 915 322
897T335 852Q334 824 317 805T278 785ZM444 785Q422 785 407 803T393 848Q394 877 411 896T451 915Q474 915 488 897T501 852Q500 824 484 805T444 785Z" />
<glyph unicode="&#xcc;" horiz-adv-x="350" d="M318 700L316 656Q285 655 270 645T248 612T240 552L218 134Q217 107 215 86T211 51Q228 53 248 53T284 55L281 0H39L42 44Q74 46 89 58T110 94T117 155L139 571Q140 593 142 613T146 649Q129 648 109 647T73 645L76
700H318ZM253 764L109 854Q89 867 82 880T75 905T84 925Q90 933 101 937T127 938T159 917L280 799L253 764Z" />
<glyph unicode="&#xcd;" horiz-adv-x="350" d="M318 700L316 656Q285 655 270 645T248 612T240 552L218 134Q217 107 215 86T211 51Q228 53 248 53T284 55L281 0H39L42 44Q74 46 89 58T110 94T117 155L139 571Q140 593 142 613T146 649Q129 648 109 647T73 645L76
700H318ZM185 764L160 799L285 917Q303 934 318 937T344 937T361 925Q368 917 368 905T361 880T333 854L185 764Z" />
<glyph unicode="&#xce;" horiz-adv-x="350" d="M318 700L316 656Q285 655 270 645T248 612T240 552L218 134Q217 107 215 86T211 51Q228 53 248 53T284 55L281 0H39L42 44Q74 46 89 58T110 94T117 155L139 571Q140 593 142 613T146 649Q129 648 109 647T73 645L76
700H318ZM606 766L469 858L327 773L305 802L474 946H480L633 800L606 766Z" />
<glyph unicode="&#xcf;" horiz-adv-x="350" d="M318 700L316 656Q285 655 270 645T248 612T240 552L218 134Q217 107 215 86T211 51Q228 53 248 53T284 55L281 0H39L42 44Q74 46 89 58T110 94T117 155L139 571Q140 593 142 613T146 649Q129 648 109 647T73 645L76
700H318ZM129 785Q107 785 92 803T78 848Q78 877 96 896T137 915Q159 915 173 897T186 852Q185 824 168 805T129 785ZM295 785Q273 785 258 803T244 848Q245 877 262 896T302 915Q325 915 339 897T352 852Q351 824 335 805T295 785Z" />
<glyph unicode="&#xd0;" horiz-adv-x="744" d="M24 319L27 385H352L349 324L24 319ZM326 701Q417 701 488 679T607 613T680 508T704 370Q703 301 679 235T605 116T482 32T306 0H38L41 44Q74 46 89 58T109 94T116 155L139 571Q141 593 142 613T146 649Q128 648
108 647T72 645L75 700L326 701ZM320 654Q287 654 271 645T248 612T240 550L218 133Q217 106 215 85T210 51Q228 51 246 51T281 50T313 50Q398 50 459 93T555 207T590 365Q593 502 525 577T320 654Z" />
<glyph unicode="&#xd1;" horiz-adv-x="765" d="M583 -11L257 450Q242 473 226 495T194 541H193L177 147Q176 122 175 97T170 51Q187 53 207 53T243 55L240 0H42L44 44Q72 44 87 55T108 84T116 126L136 551Q138 578 139 603T143 649Q127 648 108 647T73 645L76
700H207L514 270Q536 239 555 211T592 158H594L613 571Q615 594 617 614T621 649Q603 648 583 647T547 645L550 700H749L746 656Q714 655 699 643T679 607T672 545L644 -11H583ZM336 849Q315 849 293 836T252 795L216 817Q237 865 272 890T340 917Q368 917 388
908T424 887T457 865T493 856Q518 856 541 872T580 916L614 898Q598 853 577 830T533 797T489 788Q464 788 445 797T409 819T375 840T336 849Z" />
<glyph unicode="&#xd2;" horiz-adv-x="779" d="M411 716Q500 716 563 685T666 601T724 487T741 363Q740 299 717 233T648 111T535 19T376 -16Q286 -16 223 15T120 97T63 210T46 335Q47 407 72 475T144 597T259 684T411 716ZM402 667Q343 666 299 638T224 564T178
462T161 353Q160 304 171 249T208 144T277 65T384 34Q445 34 490 62T564 136T609 238T625 346Q626 409 613 466T572 569T502 640T402 667ZM458 764L314 854Q294 867 287 880T280 905T289 925Q295 933 306 937T332 938T364 917L485 799L458 764Z" />
<glyph unicode="&#xd3;" horiz-adv-x="779" d="M411 716Q500 716 563 685T666 601T724 487T741 363Q740 299 717 233T648 111T535 19T376 -16Q286 -16 223 15T120 97T63 210T46 335Q47 407 72 475T144 597T259 684T411 716ZM402 667Q343 666 299 638T224 564T178
462T161 353Q160 304 171 249T208 144T277 65T384 34Q445 34 490 62T564 136T609 238T625 346Q626 409 613 466T572 569T502 640T402 667ZM389 764L364 799L489 917Q507 934 522 937T548 937T565 925Q572 917 572 905T565 880T537 854L389 764Z" />
<glyph unicode="&#xd4;" horiz-adv-x="779" d="M411 716Q500 716 563 685T666 601T724 487T741 363Q740 299 717 233T648 111T535 19T376 -16Q286 -16 223 15T120 97T63 210T46 335Q47 407 72 475T144 597T259 684T411 716ZM402 667Q343 666 299 638T224 564T178
462T161 353Q160 304 171 249T208 144T277 65T384 34Q445 34 490 62T564 136T609 238T625 346Q626 409 613 466T572 569T502 640T402 667ZM593 768L416 857L238 770L222 801L423 945H431L614 801L593 768Z" />
<glyph unicode="&#xd5;" horiz-adv-x="779" d="M411 716Q500 716 563 685T666 601T724 487T741 363Q740 299 717 233T648 111T535 19T376 -16Q286 -16 223 15T120 97T63 210T46 335Q47 407 72 475T144 597T259 684T411 716ZM402 667Q343 666 299 638T224 564T178
462T161 353Q160 304 171 249T208 144T277 65T384 34Q445 34 490 62T564 136T609 238T625 346Q626 409 613 466T572 569T502 640T402 667ZM340 849Q319 849 297 836T256 795L220 817Q241 865 276 890T344 917Q372 917 392 908T428 887T461 865T497 856Q522 856
545 872T584 916L618 898Q602 853 581 830T537 797T493 788Q468 788 449 797T413 819T379 840T340 849Z" />
<glyph unicode="&#xd6;" horiz-adv-x="779" d="M411 716Q500 716 563 685T666 601T724 487T741 363Q740 299 717 233T648 111T535 19T376 -16Q286 -16 223 15T120 97T63 210T46 335Q47 407 72 475T144 597T259 684T411 716ZM402 667Q343 666 299 638T224 564T178
462T161 353Q160 304 171 249T208 144T277 65T384 34Q445 34 490 62T564 136T609 238T625 346Q626 409 613 466T572 569T502 640T402 667ZM333 785Q311 785 296 803T282 848Q282 877 300 896T341 915Q363 915 377 897T390 852Q389 824 372 805T333 785ZM499 785Q477
785 462 803T448 848Q449 877 466 896T506 915Q529 915 543 897T556 852Q555 824 539 805T499 785Z" />
<glyph unicode="&#xd7;" horiz-adv-x="530" d="M144 541L443 226L399 184L100 499L144 541ZM454 498L122 182L84 222L416 538L454 498Z" />
<glyph unicode="&#xd8;" horiz-adv-x="778" d="M165 -85L112 -51L172 45Q127 79 99 126T57 228T45 335Q46 407 71 475T143 597T258 684T410 716Q458 716 499 707T573 678L627 764L686 725L630 638Q688 585 714 511T740 363Q739 299 716 233T648 111T535 19T376
-16Q332 -16 296 -9T228 13L165 -85ZM222 124L533 616Q507 640 474 653T401 667Q342 666 298 638T223 564T178 462T161 353Q159 298 173 235T222 124ZM384 34Q444 34 489 62T563 136T608 238T625 346Q626 403 614 457T577 555L266 72Q290 54 319 44T384 34Z" />
<glyph unicode="&#xd9;" horiz-adv-x="748" d="M747 700L745 656Q713 655 698 643T677 607T670 545L656 306Q652 234 633 175T578 73T489 7T366 -16Q285 -16 232 6T149 71T109 178T102 325L115 565Q117 591 119 611T124 649Q106 648 86 648T50 646L53 700H296L294
656Q264 656 249 645T227 616T219 574L206 314Q203 256 210 208T236 123T292 68T383 47Q449 47 493 77T562 163T592 295L608 571Q610 593 612 613T616 649Q599 648 579 647T543 645L545 700H747ZM459 764L315 854Q295 867 288 880T281 905T290 925Q296 933 307
937T333 938T365 917L486 799L459 764Z" />
<glyph unicode="&#xda;" horiz-adv-x="748" d="M747 700L745 656Q713 655 698 643T677 607T670 545L656 306Q652 234 633 175T578 73T489 7T366 -16Q285 -16 232 6T149 71T109 178T102 325L115 565Q117 591 119 611T124 649Q106 648 86 648T50 646L53 700H296L294
656Q264 656 249 645T227 616T219 574L206 314Q203 256 210 208T236 123T292 68T383 47Q449 47 493 77T562 163T592 295L608 571Q610 593 612 613T616 649Q599 648 579 647T543 645L545 700H747ZM391 764L366 799L491 917Q509 934 524 937T550 937T567 925Q574
917 574 905T567 880T539 854L391 764Z" />
<glyph unicode="&#xdb;" horiz-adv-x="748" d="M747 700L745 656Q713 655 698 643T677 607T670 545L656 306Q652 234 633 175T578 73T489 7T366 -16Q285 -16 232 6T149 71T109 178T102 325L115 565Q117 591 119 611T124 649Q106 648 86 648T50 646L53 700H296L294
656Q264 656 249 645T227 616T219 574L206 314Q203 256 210 208T236 123T292 68T383 47Q449 47 493 77T562 163T592 295L608 571Q610 593 612 613T616 649Q599 648 579 647T543 645L545 700H747ZM595 768L418 857L240 770L224 801L425 945H433L616 801L595 768Z"
/>
<glyph unicode="&#xdc;" horiz-adv-x="748" d="M747 700L745 656Q713 655 698 643T677 607T670 545L656 306Q652 234 633 175T578 73T489 7T366 -16Q285 -16 232 6T149 71T109 178T102 325L115 565Q117 591 119 611T124 649Q106 648 86 648T50 646L53 700H296L294
656Q264 656 249 645T227 616T219 574L206 314Q203 256 210 208T236 123T292 68T383 47Q449 47 493 77T562 163T592 295L608 571Q610 593 612 613T616 649Q599 648 579 647T543 645L545 700H747ZM335 785Q313 785 298 803T284 848Q284 877 302 896T343 915Q365
915 379 897T392 852Q391 824 374 805T335 785ZM501 785Q479 785 464 803T450 848Q451 877 468 896T508 915Q531 915 545 897T558 852Q557 824 541 805T501 785Z" />
<glyph unicode="&#xdd;" horiz-adv-x="649" d="M201 0L204 44Q237 46 252 58T272 94T279 155L284 260L122 540Q102 575 91 602T79 647Q63 646 50 646T22 645L24 700H291L289 656Q248 657 230 645T211 611T228 558Q245 529 266 493T306 424Q313 413 321 399T338
369T354 339H355Q366 359 379 381T406 430Q426 466 446 499T486 567Q492 577 501 592T520 622T540 648Q522 647 501 647T462 645L464 700H674L672 656Q627 652 596 624T529 534L389 292L380 134Q379 107 377 86T373 51Q386 52 400 52T429 54T455 55L452 0H201ZM343
764L318 799L443 917Q461 934 476 937T502 937T519 925Q526 917 526 905T519 880T491 854L343 764Z" />
<glyph unicode="&#xde;" horiz-adv-x="595" d="M39 0L42 44Q74 46 89 58T110 94T117 155L139 571Q141 593 142 613T146 649Q129 648 109 647T73 645L76 700H318L316 656Q275 654 261 636T242 575Q256 575 269 575T296 576Q390 576 453 555T549 490T579 381Q578
344 561 305T506 233T407 178T252 157Q242 156 235 156T219 157Q218 121 217 102T215 72T211 51Q228 53 248 53T284 55L281 0H39ZM222 207Q232 206 242 206T264 206Q355 207 408 251T465 373Q468 418 454 447T415 494T358 518T289 526Q281 526 268 526T239 525L222
207Z" />
<glyph unicode="&#xdf;" horiz-adv-x="657" d="M-39 -271Q-79 -271 -100 -256T-122 -212Q-122 -203 -117 -192T-102 -171T-74 -163Q-54 -164 -43 -178T-32 -215Q-28 -218 -20 -219T-8 -221Q13 -221 27 -205T50 -160T64 -93T74 -12Q78 35 82 94T90 218T100 343T110
448L23 447L30 500H118Q127 563 147 611T200 693T276 743T377 760Q422 760 458 750T521 722T561 679T575 622Q575 588 561 563T526 517T480 479Q454 459 434 440T413 396Q413 379 424 364T456 333T508 296Q537 277 564 255T609 204T627 138Q627 95 604 61T542 8T448
-11Q406 -11 369 2T309 40T286 99Q286 124 301 139T337 155Q359 155 371 141T384 106Q384 99 383 92T377 76Q384 58 404 47T448 36Q493 36 512 59T531 120Q531 152 505 176T445 225Q411 248 384 270T342 316T326 368Q326 395 337 415T365 452T403 484T440 515Q459
534 473 557T487 613Q486 642 474 664T438 700T378 714Q332 714 301 695T251 642T222 562T208 465Q204 430 201 383T193 283T185 177T176 75T166 -12Q155 -87 132 -145T68 -237T-39 -271Z" />
<glyph unicode="&#xe0;" horiz-adv-x="548" d="M328 511Q358 511 394 506T466 493Q459 440 451 383T437 271T426 172T421 103Q421 84 424 69T444 53Q460 53 478 73T510 144L547 135Q543 116 534 92T508 44T469 5T414 -11Q376 -11 357 12T338 79Q338 103 342 131T351
188H349Q327 124 303 85T255 25T208 -3T162 -11Q108 -11 71 30T33 166Q33 235 51 297T107 408T200 483T328 511ZM295 465Q256 465 226 443T176 380T145 288T135 175Q135 119 147 84T191 48Q216 48 240 73T286 142T324 238T350 348T361 455Q349 460 332 462T295
465ZM352 574L246 681Q230 698 226 713T224 740T235 760Q243 766 255 768T281 764T306 736L384 601L352 574Z" />
<glyph unicode="&#xe1;" horiz-adv-x="548" d="M328 511Q358 511 394 506T466 493Q459 440 451 383T437 271T426 172T421 103Q421 84 424 69T444 53Q460 53 478 73T510 144L547 135Q543 116 534 92T508 44T469 5T414 -11Q376 -11 357 12T338 79Q338 103 342 131T351
188H349Q327 124 303 85T255 25T208 -3T162 -11Q108 -11 71 30T33 166Q33 235 51 297T107 408T200 483T328 511ZM295 465Q256 465 226 443T176 380T145 288T135 175Q135 119 147 84T191 48Q216 48 240 73T286 142T324 238T350 348T361 455Q349 460 332 462T295
465ZM267 574L236 601L318 736Q331 757 345 764T371 769T391 760Q399 753 401 741T400 713T378 681L267 574Z" />
<glyph unicode="&#xe2;" horiz-adv-x="548" d="M328 511Q358 511 394 506T466 493Q459 440 451 383T437 271T426 172T421 103Q421 84 424 69T444 53Q460 53 478 73T510 144L547 135Q543 116 534 92T508 44T469 5T414 -11Q376 -11 357 12T338 79Q338 103 342 131T351
188H349Q327 124 303 85T255 25T208 -3T162 -11Q108 -11 71 30T33 166Q33 235 51 297T107 408T200 483T328 511ZM295 465Q256 465 226 443T176 380T145 288T135 175Q135 119 147 84T191 48Q216 48 240 73T286 142T324 238T350 348T361 455Q349 460 332 462T295
465ZM456 582L331 692H329L193 586L167 619L338 778H343L487 614L456 582Z" />
<glyph unicode="&#xe3;" horiz-adv-x="548" d="M328 511Q358 511 394 506T466 493Q459 440 451 383T437 271T426 172T421 103Q421 84 424 69T444 53Q460 53 478 73T510 144L547 135Q543 116 534 92T508 44T469 5T414 -11Q376 -11 357 12T338 79Q338 103 342 131T351
188H349Q327 124 303 85T255 25T208 -3T162 -11Q108 -11 71 30T33 166Q33 235 51 297T107 408T200 483T328 511ZM295 465Q256 465 226 443T176 380T145 288T135 175Q135 119 147 84T191 48Q216 48 240 73T286 142T324 238T350 348T361 455Q349 460 332 462T295
465ZM188 619L153 639Q168 677 200 701T262 727Q294 727 313 716T349 692T388 679Q410 679 427 692T460 730L494 713Q475 659 445 637T386 614Q357 614 337 626T298 650T258 662Q242 662 223 652T188 619Z" />
<glyph unicode="&#xe4;" horiz-adv-x="548" d="M328 511Q358 511 394 506T466 493Q459 440 451 383T437 271T426 172T421 103Q421 84 424 69T444 53Q460 53 478 73T510 144L547 135Q543 116 534 92T508 44T469 5T414 -11Q376 -11 357 12T338 79Q338 103 342 131T351
188H349Q327 124 303 85T255 25T208 -3T162 -11Q108 -11 71 30T33 166Q33 235 51 297T107 408T200 483T328 511ZM295 465Q256 465 226 443T176 380T145 288T135 175Q135 119 147 84T191 48Q216 48 240 73T286 142T324 238T350 348T361 455Q349 460 332 462T295
465ZM395 611Q374 611 360 628T345 670Q347 696 363 715T401 734Q424 734 437 717T449 674Q449 648 433 630T395 611ZM239 611Q218 611 204 628T189 670Q191 696 207 715T245 734Q268 734 281 717T293 674Q293 648 277 630T239 611Z" />
<glyph unicode="&#xe5;" horiz-adv-x="548" d="M328 511Q358 511 394 506T466 493Q459 440 451 383T437 271T426 172T421 103Q421 84 424 69T444 53Q460 53 478 73T510 144L547 135Q543 116 534 92T508 44T469 5T414 -11Q376 -11 357 12T338 79Q338 103 342 131T351
188H349Q327 124 303 85T255 25T208 -3T162 -11Q108 -11 71 30T33 166Q33 235 51 297T107 408T200 483T328 511ZM295 465Q256 465 226 443T176 380T145 288T135 175Q135 119 147 84T191 48Q216 48 240 73T286 142T324 238T350 348T361 455Q349 460 332 462T295
465ZM314 568Q289 568 266 578T229 611T214 665Q215 697 231 721T272 758T324 772Q349 772 372 762T410 731T424 676Q424 643 407 619T365 581T314 568ZM320 606Q337 607 350 623T364 664Q366 697 354 716T322 734Q305 733 291 717T275 676Q274 646 286 626T320
606Z" />
<glyph unicode="&#xe6;" horiz-adv-x="742" d="M549 511Q590 511 617 500T659 472T681 434T688 397Q688 369 672 343T621 294T532 255T404 229Q404 173 416 134T454 74T518 53Q544 53 571 66T623 104T667 166L707 144Q678 83 643 50T570 3T496 -11Q440 -11 404
9T341 74Q298 29 250 9T156 -11Q89 -11 56 21T24 105Q25 151 51 182T119 234T213 263T315 271Q315 277 315 289T318 327Q320 364 315 395T293 446T237 465Q205 464 180 450T146 413Q152 405 153 396T155 379Q155 362 142 347T104 332Q83 333 71 347T59 383Q60 415
85 444T155 492T257 511Q306 511 337 490T383 426Q413 467 455 489T549 511ZM311 229Q279 228 247 223T186 206T141 174T123 122Q122 88 143 74T186 58Q220 55 257 71T320 115Q315 144 313 173T311 229ZM533 467Q496 466 470 441T427 372T405 275Q459 281 502 297T570
340T596 403Q596 429 586 443T561 462T533 467Z" />
<glyph unicode="&#xe7;" horiz-adv-x="471" d="M276 511Q320 511 355 496T410 454T430 393Q430 368 417 353T381 337Q354 336 343 353T332 384Q332 393 334 403T344 423Q339 445 320 455T275 466Q236 466 210 444T168 385T147 309T139 232Q139 167 153 128T192
71T248 52Q272 52 298 62T351 97T396 171L438 150Q412 90 379 55T307 4T229 -11Q141 -11 88 42T35 208Q35 256 49 309T93 408T168 482T276 511ZM136 -246L132 -208Q153 -204 175 -199T216 -184T247 -164T259 -137Q259 -117 246 -112T214 -109T183 -122L148 -106L184
9H242L211 -74Q225 -66 244 -61T279 -56Q312 -57 330 -75T346 -123Q344 -155 322 -177T266 -212T198 -234T136 -246Z" />
<glyph unicode="&#xe8;" horiz-adv-x="475" d="M281 511Q320 511 352 500T405 462T425 392Q425 351 398 322T328 273T235 243T139 225Q139 165 152 127T188 71T245 53Q270 53 297 64T351 99T398 166L439 144Q411 88 378 54T307 4T225 -11Q131 -11 83 46T35 206Q35
260 50 314T95 413T172 484T281 511ZM268 466Q226 466 200 438T159 364T141 271Q194 279 237 296T305 340T330 400Q330 430 314 448T268 466ZM310 574L204 681Q188 698 184 713T182 740T193 760Q201 766 213 768T239 764T264 736L342 601L310 574Z" />
<glyph unicode="&#xe9;" horiz-adv-x="475" d="M281 511Q320 511 352 500T405 462T425 392Q425 351 398 322T328 273T235 243T139 225Q139 165 152 127T188 71T245 53Q270 53 297 64T351 99T398 166L439 144Q411 88 378 54T307 4T225 -11Q131 -11 83 46T35 206Q35
260 50 314T95 413T172 484T281 511ZM268 466Q226 466 200 438T159 364T141 271Q194 279 237 296T305 340T330 400Q330 430 314 448T268 466ZM226 574L195 601L277 736Q290 757 304 764T330 769T350 760Q358 753 360 741T359 713T337 681L226 574Z" />
<glyph unicode="&#xea;" horiz-adv-x="475" d="M281 511Q320 511 352 500T405 462T425 392Q425 351 398 322T328 273T235 243T139 225Q139 165 152 127T188 71T245 53Q270 53 297 64T351 99T398 166L439 144Q411 88 378 54T307 4T225 -11Q131 -11 83 46T35 206Q35
260 50 314T95 413T172 484T281 511ZM268 466Q226 466 200 438T159 364T141 271Q194 279 237 296T305 340T330 400Q330 430 314 448T268 466ZM414 582L289 692H287L151 586L125 619L296 778H301L445 614L414 582Z" />
<glyph unicode="&#xeb;" horiz-adv-x="475" d="M281 511Q320 511 352 500T405 462T425 392Q425 351 398 322T328 273T235 243T139 225Q139 165 152 127T188 71T245 53Q270 53 297 64T351 99T398 166L439 144Q411 88 378 54T307 4T225 -11Q131 -11 83 46T35 206Q35
260 50 314T95 413T172 484T281 511ZM268 466Q226 466 200 438T159 364T141 271Q194 279 237 296T305 340T330 400Q330 430 314 448T268 466ZM353 611Q332 611 318 628T303 670Q305 696 321 715T359 734Q382 734 395 717T407 674Q407 648 391 630T353 611ZM197
611Q176 611 162 628T147 670Q149 696 165 715T203 734Q226 734 239 717T251 674Q251 648 235 630T197 611Z" />
<glyph unicode="&#xec;" horiz-adv-x="331" d="M141 511Q186 511 207 482T228 403Q228 375 223 336T210 252T197 166T192 90Q192 71 198 62T217 53Q233 53 250 73T282 144L319 135Q315 114 305 89T279 41T239 4T186 -11Q137 -11 116 15T94 89Q94 128 99 169T112
251T125 331T131 408Q131 422 126 434T107 447Q92 447 74 427T42 356L5 365Q9 384 19 408T45 456T85 495T141 511ZM216 574L110 681Q94 698 90 713T88 740T99 760Q107 766 119 768T145 764T170 736L248 601L216 574Z" />
<glyph unicode="&#xed;" horiz-adv-x="331" d="M141 511Q186 511 207 482T228 403Q228 375 223 336T210 252T197 166T192 90Q192 71 198 62T217 53Q233 53 250 73T282 144L319 135Q315 114 305 89T279 41T239 4T186 -11Q137 -11 116 15T94 89Q94 128 99 169T112
251T125 331T131 408Q131 422 126 434T107 447Q92 447 74 427T42 356L5 365Q9 384 19 408T45 456T85 495T141 511ZM132 574L101 601L183 736Q196 757 210 764T236 769T256 760Q264 753 266 741T265 713T243 681L132 574Z" />
<glyph unicode="&#xee;" horiz-adv-x="331" d="M141 511Q186 511 207 482T228 403Q228 375 223 336T210 252T197 166T192 90Q192 71 198 62T217 53Q233 53 250 73T282 144L319 135Q315 114 305 89T279 41T239 4T186 -11Q137 -11 116 15T94 89Q94 128 99 169T112
251T125 331T131 408Q131 422 126 434T107 447Q92 447 74 427T42 356L5 365Q9 384 19 408T45 456T85 495T141 511ZM282 582L166 692H165L38 586L13 619L173 778H178L311 614L282 582Z" />
<glyph unicode="&#xef;" horiz-adv-x="331" d="M141 511Q186 511 207 482T228 403Q228 375 223 336T210 252T197 166T192 90Q192 71 198 62T217 53Q233 53 250 73T282 144L319 135Q315 114 305 89T279 41T239 4T186 -11Q137 -11 116 15T94 89Q94 128 99 169T112
251T125 331T131 408Q131 422 126 434T107 447Q92 447 74 427T42 356L5 365Q9 384 19 408T45 456T85 495T141 511ZM515 611Q494 611 480 628T465 670Q467 696 483 715T521 734Q544 734 557 717T569 674Q569 648 553 630T515 611ZM359 611Q338 611 324 628T309 670Q311
696 327 715T365 734Q388 734 401 717T413 674Q413 648 397 630T359 611Z" />
<glyph unicode="&#xf0;" horiz-adv-x="518" d="M317 798L355 763L304 707Q357 671 392 615T445 489T463 336Q463 247 445 182T394 74T315 10T216 -11Q169 -11 128 13T62 87T36 213Q36 273 52 326T99 419T170 481T260 502Q294 501 319 489T365 454Q362 493 350
531T316 603T266 658L202 582L160 621L219 687Q197 698 170 705T108 713L114 759Q158 760 195 753T260 732L317 798ZM266 454Q233 454 204 425T157 344T138 222Q138 136 163 86T233 36Q264 36 286 55T324 105T348 174T361 250T365 321Q365 362 354 392T321 438T266
454Z" />
<glyph unicode="&#xf1;" horiz-adv-x="613" d="M466 -11Q417 -11 399 15T381 91Q381 119 385 157T395 236T405 319T410 394Q410 407 407 419T395 440T369 449Q345 449 320 425T272 358T231 265T203 161T192 59Q192 45 192 29T194 0H95Q94 12 94 18T94 33Q94 52
96 76T102 137T113 226Q118 274 121 304T127 354T131 386T132 408Q132 426 127 436T109 447Q95 447 77 427T44 356L7 365Q11 384 20 408T46 456T85 495T139 511Q169 511 186 496T210 455T216 395Q215 370 211 349T204 309H206Q237 389 268 433T332 494T395 511Q436
511 460 493T496 443T507 373Q507 324 500 271T486 171T479 93Q479 75 483 64T502 53Q517 53 534 73T567 144L603 134Q600 116 590 91T563 43T522 5T466 -11ZM213 619L178 639Q193 677 225 701T287 727Q319 727 338 716T374 692T413 679Q435 679 452 692T485 730L519
713Q500 659 470 637T411 614Q382 614 362 626T323 650T283 662Q267 662 248 652T213 619Z" />
<glyph unicode="&#xf2;" horiz-adv-x="519" d="M284 511Q338 511 382 486T451 411T477 291Q477 211 448 142T363 31T230 -11Q164 -11 121 19T56 100T35 214Q35 295 65 362T151 470T284 511ZM269 464Q229 465 201 436T156 356T139 245Q139 213 143 177T159 109T191
57T242 36Q277 36 301 57T341 113T364 187T373 260Q374 293 370 328T355 394T323 444T269 464ZM324 574L218 681Q202 698 198 713T196 740T207 760Q215 766 227 768T253 764T278 736L356 601L324 574Z" />
<glyph unicode="&#xf3;" horiz-adv-x="519" d="M284 511Q338 511 382 486T451 411T477 291Q477 211 448 142T363 31T230 -11Q164 -11 121 19T56 100T35 214Q35 295 65 362T151 470T284 511ZM269 464Q229 465 201 436T156 356T139 245Q139 213 143 177T159 109T191
57T242 36Q277 36 301 57T341 113T364 187T373 260Q374 293 370 328T355 394T323 444T269 464ZM240 574L209 601L291 736Q304 757 318 764T344 769T364 760Q372 753 374 741T373 713T351 681L240 574Z" />
<glyph unicode="&#xf4;" horiz-adv-x="519" d="M284 511Q338 511 382 486T451 411T477 291Q477 211 448 142T363 31T230 -11Q164 -11 121 19T56 100T35 214Q35 295 65 362T151 470T284 511ZM269 464Q229 465 201 436T156 356T139 245Q139 213 143 177T159 109T191
57T242 36Q277 36 301 57T341 113T364 187T373 260Q374 293 370 328T355 394T323 444T269 464ZM428 582L303 692H301L165 586L139 619L310 778H315L459 614L428 582Z" />
<glyph unicode="&#xf5;" horiz-adv-x="519" d="M284 511Q338 511 382 486T451 411T477 291Q477 211 448 142T363 31T230 -11Q164 -11 121 19T56 100T35 214Q35 295 65 362T151 470T284 511ZM269 464Q229 465 201 436T156 356T139 245Q139 213 143 177T159 109T191
57T242 36Q277 36 301 57T341 113T364 187T373 260Q374 293 370 328T355 394T323 444T269 464ZM160 619L125 639Q140 677 172 701T234 727Q266 727 285 716T321 692T360 679Q382 679 399 692T432 730L466 713Q447 659 417 637T358 614Q329 614 309 626T270 650T230
662Q214 662 195 652T160 619Z" />
<glyph unicode="&#xf6;" horiz-adv-x="519" d="M284 511Q338 511 382 486T451 411T477 291Q477 211 448 142T363 31T230 -11Q164 -11 121 19T56 100T35 214Q35 295 65 362T151 470T284 511ZM269 464Q229 465 201 436T156 356T139 245Q139 213 143 177T159 109T191
57T242 36Q277 36 301 57T341 113T364 187T373 260Q374 293 370 328T355 394T323 444T269 464ZM367 611Q346 611 332 628T317 670Q319 696 335 715T373 734Q396 734 409 717T421 674Q421 648 405 630T367 611ZM211 611Q190 611 176 628T161 670Q163 696 179 715T217
734Q240 734 253 717T265 674Q265 648 249 630T211 611Z" />
<glyph unicode="&#xf7;" horiz-adv-x="531" d="M267 264Q293 264 309 244T324 196Q323 167 304 148T259 128Q233 128 216 147T200 196Q202 224 222 244T267 264ZM284 593Q310 593 326 573T341 525Q340 496 321 477T276 457Q250 457 233 476T217 525Q219 553 239
573T284 593ZM49 393H495L493 334H47L49 393Z" />
<glyph unicode="&#xf8;" horiz-adv-x="519" d="M444 565L492 529L431 443Q453 415 465 377T477 291Q477 211 448 142T363 31T230 -11Q172 -11 130 14L66 -77L27 -46L90 46Q63 77 49 120T35 214Q35 295 65 362T151 470T284 511Q342 511 387 482L444 565ZM368 357L173
77Q185 58 202 47T242 36Q279 36 304 57T345 113T368 187T377 260Q378 283 376 308T368 357ZM269 464Q228 465 199 436T153 356T135 245Q134 218 137 188T150 130L345 418Q333 439 315 451T269 464Z" />
<glyph unicode="&#xf9;" horiz-adv-x="595" d="M209 -11Q168 -11 144 7T108 57T96 127Q96 177 103 229T118 329T126 407Q126 425 122 436T103 447Q89 447 72 427T40 356L4 365Q7 384 17 408T43 456T83 495T139 511Q184 511 204 485T224 409Q224 380 220 340T209
258T199 176T194 107Q194 95 197 82T209 60T234 51Q259 51 283 75T328 142T367 235T395 339T405 441Q405 455 405 471T402 500H501Q503 488 503 482T503 467Q503 448 501 423T495 360T484 270Q478 222 475 192T469 144T466 114T465 92Q465 75 470 65T487 54Q502
54 520 74T552 144L589 135Q585 116 576 92T551 44T512 5T458 -11Q420 -11 399 12T378 79Q378 105 382 132T392 190H390Q359 110 330 66T271 6T209 -11ZM350 574L244 681Q228 698 224 713T222 740T233 760Q241 766 253 768T279 764T304 736L382 601L350 574Z" />
<glyph unicode="&#xfa;" horiz-adv-x="595" d="M209 -11Q168 -11 144 7T108 57T96 127Q96 177 103 229T118 329T126 407Q126 425 122 436T103 447Q89 447 72 427T40 356L4 365Q7 384 17 408T43 456T83 495T139 511Q184 511 204 485T224 409Q224 380 220 340T209
258T199 176T194 107Q194 95 197 82T209 60T234 51Q259 51 283 75T328 142T367 235T395 339T405 441Q405 455 405 471T402 500H501Q503 488 503 482T503 467Q503 448 501 423T495 360T484 270Q478 222 475 192T469 144T466 114T465 92Q465 75 470 65T487 54Q502
54 520 74T552 144L589 135Q585 116 576 92T551 44T512 5T458 -11Q420 -11 399 12T378 79Q378 105 382 132T392 190H390Q359 110 330 66T271 6T209 -11ZM265 574L234 601L316 736Q329 757 343 764T369 769T389 760Q397 753 399 741T398 713T376 681L265 574Z" />
<glyph unicode="&#xfb;" horiz-adv-x="595" d="M209 -11Q168 -11 144 7T108 57T96 127Q96 177 103 229T118 329T126 407Q126 425 122 436T103 447Q89 447 72 427T40 356L4 365Q7 384 17 408T43 456T83 495T139 511Q184 511 204 485T224 409Q224 380 220 340T209
258T199 176T194 107Q194 95 197 82T209 60T234 51Q259 51 283 75T328 142T367 235T395 339T405 441Q405 455 405 471T402 500H501Q503 488 503 482T503 467Q503 448 501 423T495 360T484 270Q478 222 475 192T469 144T466 114T465 92Q465 75 470 65T487 54Q502
54 520 74T552 144L589 135Q585 116 576 92T551 44T512 5T458 -11Q420 -11 399 12T378 79Q378 105 382 132T392 190H390Q359 110 330 66T271 6T209 -11ZM454 582L329 692H327L191 586L165 619L336 778H341L485 614L454 582Z" />
<glyph unicode="&#xfc;" horiz-adv-x="595" d="M209 -11Q168 -11 144 7T108 57T96 127Q96 177 103 229T118 329T126 407Q126 425 122 436T103 447Q89 447 72 427T40 356L4 365Q7 384 17 408T43 456T83 495T139 511Q184 511 204 485T224 409Q224 380 220 340T209
258T199 176T194 107Q194 95 197 82T209 60T234 51Q259 51 283 75T328 142T367 235T395 339T405 441Q405 455 405 471T402 500H501Q503 488 503 482T503 467Q503 448 501 423T495 360T484 270Q478 222 475 192T469 144T466 114T465 92Q465 75 470 65T487 54Q502
54 520 74T552 144L589 135Q585 116 576 92T551 44T512 5T458 -11Q420 -11 399 12T378 79Q378 105 382 132T392 190H390Q359 110 330 66T271 6T209 -11ZM393 611Q372 611 358 628T343 670Q345 696 361 715T399 734Q422 734 435 717T447 674Q447 648 431 630T393
611ZM237 611Q216 611 202 628T187 670Q189 696 205 715T243 734Q266 734 279 717T291 674Q291 648 275 630T237 611Z" />
<glyph unicode="&#xfd;" horiz-adv-x="530" d="M84 -271Q46 -270 24 -251T1 -203Q1 -177 17 -163T50 -149Q98 -149 99 -202Q104 -204 108 -205T117 -207Q137 -207 159 -192T201 -153T236 -107T259 -70Q251 -16 238 43T207 163T171 280T130 385Q123 401 112 419T82
437Q65 435 54 412T44 342H4Q3 368 7 397T24 452T59 494T115 511Q148 511 170 494T207 452T231 401Q248 356 267 294T301 165T324 37H326Q352 85 374 138T410 246T425 347Q425 368 422 388T411 418Q407 416 402 415T389 414Q369 414 356 427T342 459Q342 485 359
498T397 511Q430 511 448 492T475 442T484 379Q484 321 467 255T421 121T358 -11Q312 -95 266 -154T175 -242T84 -271ZM218 574L187 601L269 736Q282 757 296 764T322 769T342 760Q350 753 352 741T351 713T329 681L218 574Z" />
<glyph unicode="&#xfe;" horiz-adv-x="515" d="M206 755Q199 710 194 662T184 574Q180 535 176 497T168 418T159 329H161Q181 388 203 424T249 479T296 504T341 511Q389 511 417 485T459 417T472 324Q472 255 457 194T408 87T322 15T196 -11Q186 -11 172 -11T144
-8L139 -120Q138 -138 137 -162T131 -205Q147 -204 164 -204T195 -202V-255H-16V-213Q11 -213 23 -197T40 -153T46 -91Q53 10 58 95T69 258T80 419T93 599Q95 620 96 640T100 679Q83 678 64 677T29 675L33 727Q78 727 105 731T146 742T168 755H206ZM306 449Q281
449 258 426T216 364T181 275T156 167T145 52Q157 43 177 39T212 34Q252 35 280 54T326 104T353 172T366 248T369 319Q369 382 353 416T306 449Z" />
<glyph unicode="&#xff;" horiz-adv-x="530" d="M84 -271Q46 -270 24 -251T1 -203Q1 -177 17 -163T50 -149Q98 -149 99 -202Q104 -204 108 -205T117 -207Q137 -207 159 -192T201 -153T236 -107T259 -70Q251 -16 238 43T207 163T171 280T130 385Q123 401 112 419T82
437Q65 435 54 412T44 342H4Q3 368 7 397T24 452T59 494T115 511Q148 511 170 494T207 452T231 401Q248 356 267 294T301 165T324 37H326Q352 85 374 138T410 246T425 347Q425 368 422 388T411 418Q407 416 402 415T389 414Q369 414 356 427T342 459Q342 485 359
498T397 511Q430 511 448 492T475 442T484 379Q484 321 467 255T421 121T358 -11Q312 -95 266 -154T175 -242T84 -271ZM346 611Q325 611 311 628T296 670Q298 696 314 715T352 734Q375 734 388 717T400 674Q400 648 384 630T346 611ZM190 611Q169 611 155 628T140
670Q142 696 158 715T196 734Q219 734 232 717T244 674Q244 648 228 630T190 611Z" />
<glyph unicode="&#x2013;" horiz-adv-x="576" d="M519 357L515 282L58 278L62 357H519Z" />
<glyph unicode="&#x2014;" horiz-adv-x="770" d="M712 357L708 282L59 278L62 357H712Z" />
<glyph unicode="&#x2018;" horiz-adv-x="216" d="M133 467Q97 467 79 491T61 554Q62 581 72 616T101 689T150 760L179 737Q164 719 151 693T130 636T120 578Q126 580 132 581T144 582Q166 582 181 568T195 529Q195 501 177 484T133 467Z" />
<glyph unicode="&#x2019;" horiz-adv-x="201" d="M118 760Q154 760 172 736T190 673Q189 646 179 611T150 539T101 467L72 490Q87 508 100 534T122 591T131 649Q125 647 120 646T107 645Q85 645 70 659T56 698Q56 726 74 743T118 760Z" />
<glyph unicode="&#x201a;" horiz-adv-x="241" d="M100 111Q136 111 154 87T172 24Q171 -3 161 -38T132 -110T83 -182L54 -159Q69 -141 82 -115T104 -58T113 0Q107 -2 102 -3T89 -4Q67 -4 52 10T38 49Q38 77 56 94T100 111Z" />
<glyph unicode="&#x201c;" horiz-adv-x="397" d="M133 467Q97 467 79 491T61 554Q62 581 72 616T101 689T150 760L179 737Q164 719 151 693T130 636T120 578Q126 580 132 581T144 582Q166 582 181 568T195 529Q195 501 177 484T133 467ZM313 467Q278 467 260 491T242
554Q243 581 252 616T282 689T331 760L360 737Q345 719 332 693T310 636T301 578Q307 580 312 581T325 582Q346 582 361 568T376 529Q376 501 358 484T313 467Z" />
<glyph unicode="&#x201d;" horiz-adv-x="380" d="M118 760Q154 760 172 736T190 673Q189 646 179 611T150 539T101 467L72 490Q87 508 100 534T122 591T131 649Q125 647 120 646T107 645Q85 645 70 659T56 698Q56 726 74 743T118 760ZM297 760Q333 760 351 736T369
673Q368 646 358 611T329 539T280 467L251 490Q266 508 279 534T301 591T310 649Q304 647 299 646T286 645Q264 645 249 659T235 698Q235 726 253 743T297 760Z" />
<glyph unicode="&#x201e;" horiz-adv-x="422" d="M100 111Q136 111 154 87T172 24Q171 -3 161 -38T132 -110T83 -182L54 -159Q69 -141 82 -115T104 -58T113 0Q107 -2 102 -3T89 -4Q67 -4 52 10T38 49Q38 77 56 94T100 111ZM281 111Q317 111 335 87T353 24Q352
-3 342 -38T313 -110T264 -182L235 -159Q250 -141 263 -115T285 -58T294 0Q288 -2 283 -3T270 -4Q248 -4 233 10T219 49Q219 77 237 94T281 111Z" />
<glyph unicode="&#x2022;" horiz-adv-x="385" d="M204 521Q247 521 280 501T333 447T350 370Q348 328 326 294T268 240T189 220Q147 220 113 240T61 294T44 370Q47 413 69 447T126 501T204 521Z" />
<glyph unicode="&#x2039;" horiz-adv-x="370" d="M275 -10L22 262V272L314 550L345 515L134 265V263L312 23L275 -10Z" />
<glyph unicode="&#x203a;" horiz-adv-x="370" d="M51 -10L20 25L231 275V277L53 517L90 550L343 278V268L51 -10Z" />
</font>
</defs>
</svg>
