<?xml version="1.0" standalone="no"?>
<!DOCTYPE svg PUBLIC "-//W3C//DTD SVG 1.1//EN" "http://www.w3.org/Graphics/SVG/1.1/DTD/svg11.dtd">
<svg xmlns="http://www.w3.org/2000/svg">
<defs >
<font id="Lora" horiz-adv-x="598" ><font-face
    font-family="Lora"
    units-per-em="1000"
    panose-1="0 0 0 0 0 0 0 0 0 0"
    ascent="1006"
    descent="-274"
    alphabetic="0" />
<glyph unicode=" " horiz-adv-x="263" />
<glyph unicode="!" horiz-adv-x="258" d="M95 213L57 625Q54 657 72 686T129 716Q170 716 186 687T200 625L163 213H95ZM128 -16Q99 -16 78 7T56 62Q56 94 78 117T129 140Q160 140 180 117T201 62Q201 30 179 7T128 -16Z" />
<glyph unicode="&quot;" horiz-adv-x="326" d="M194 491L186 716H283L274 491H194ZM51 491L43 716H140L131 491H51Z" />
<glyph unicode="#" horiz-adv-x="871" d="M162 -16L203 154H37L58 243H221L271 440H103L124 529H290L334 716H435L392 529H565L609 716H709L667 529H834V528L814 440H648L601 243H768L747 154H583L543 -16H437L478 154H307L268 -16H162ZM325 243H496L546 440H373L325
243Z" />
<glyph unicode="$" horiz-adv-x="588" d="M263 -154L262 -13Q231 -8 198 3T136 33L138 -9H61V225H126Q140 141 186 99T302 56Q355 56 384 84T413 156Q413 190 393 211T339 247T267 278Q209 302 160 334T80 413T50 525Q50 555 59 587T90 647T151 694T250 716V837H344L343
706Q365 700 385 691T424 668L421 709H499V476H433Q424 532 405 569T353 626T274 644Q246 644 225 633T192 603T180 558Q180 527 194 506T241 464T332 418Q369 402 407 382T476 334T527 271T546 186Q546 134 524 92T460 23T355 -13L354 -154H263Z" />
<glyph unicode="%" horiz-adv-x="904" d="M193 -17L128 44L698 716L771 650L193 -17ZM230 325Q169 325 127 352T63 424T41 517Q41 564 63 609T127 684T228 716Q290 717 332 689T395 616T417 526Q417 473 392 427T325 353T230 325ZM231 405Q256 405 269 421T289
463T295 511Q295 531 292 553T282 594T261 626T229 639Q210 639 198 628T178 600T167 565T164 532Q164 513 167 491T177 450T197 418T231 405ZM677 -16Q616 -16 574 11T510 83T488 176Q488 223 510 268T574 343T675 375Q736 376 778 348T842 275T864 185Q864 133
839 87T772 13T677 -16ZM678 64Q696 64 708 74T728 100T739 134T742 170Q742 190 739 212T729 253T708 285T676 298Q651 298 637 279T616 235T610 191Q610 172 613 150T623 109T644 77T678 64Z" />
<glyph unicode="&amp;" horiz-adv-x="670" d="M261 -16Q218 -16 176 -5T99 28T44 86T23 170Q23 237 67 288T179 365Q143 404 126 436T103 496T97 551Q98 627 150 671T288 716Q341 716 380 694T440 637T462 559Q462 518 442 482T388 416T318 364Q322 360 346 335T406
275T480 205Q483 217 484 229T485 255Q485 283 479 299T462 322T432 331V395H600V320L545 323Q550 311 553 296T556 262Q556 233 551 206T537 154Q541 151 544 148T552 141Q591 108 623 87T675 66V0H568Q560 0 533 15T470 57Q431 23 378 4T261 -16ZM293 55Q331
55 362 67T418 102Q405 113 393 124T368 147Q310 200 275 236T208 308Q189 293 179 272T164 231T159 195Q159 150 175 119T221 71T293 55ZM273 417Q311 446 330 489T349 564Q349 600 332 623T283 646Q255 646 236 623T216 556Q216 526 232 487T273 417Z" />
<glyph unicode="&apos;" horiz-adv-x="188" d="M52 491L42 716H146L137 491H52Z" />
<glyph unicode="(" horiz-adv-x="296" d="M249 760L286 725Q255 684 233 631T197 521T174 410T163 311T159 239Q159 212 162 169T174 73T196 -35T233 -143T286 -236L250 -271Q213 -237 173 -185T100 -65T45 79T24 239Q24 322 45 401T99 549T172 672T249 760Z" />
<glyph unicode=")" horiz-adv-x="296" d="M47 -271L10 -236Q41 -195 63 -142T99 -32T122 79T133 178T137 250Q137 277 134 320T122 416T100 524T63 632T10 725L46 760Q84 726 123 674T196 554T251 410T272 250Q272 167 251 88T197 -60T124 -183T47 -271Z" />
<glyph unicode="*" horiz-adv-x="533" d="M130 296Q113 309 111 324T114 355T130 385Q143 402 166 423T228 471Q181 471 150 474T98 484Q82 490 68 498T47 521T46 556Q57 587 81 589T130 583Q150 576 177 561T243 518Q228 562 222 593T215 645Q215 662 219 678T234
705T267 716Q289 716 300 706T315 679T319 645Q319 624 313 593T291 518Q329 545 356 560T402 583Q419 589 436 590T467 584T487 556Q497 525 479 509T436 484Q415 478 384 475T306 471Q344 444 367 423T403 385Q413 371 419 355T424 324T403 296Q386 284 371 286T342
299T319 323Q306 341 294 370T267 443Q253 399 240 370T214 324Q204 310 191 299T163 286T130 296Z" />
<glyph unicode="+" horiz-adv-x="530" d="M42 399H488V321H42V399ZM304 583V137H226V583H304Z" />
<glyph unicode="," horiz-adv-x="250" d="M116 -187L77 -159Q88 -145 101 -119T125 -62T134 -1Q127 -3 123 -3T113 -4Q86 -4 65 12T44 62Q44 92 63 114T116 137Q162 138 185 108T208 32Q208 0 198 -36T168 -110T116 -187Z" />
<glyph unicode="-" horiz-adv-x="471" d="M51 260V368H419V263L51 260Z" />
<glyph unicode="." horiz-adv-x="233" d="M118 -16Q85 -16 65 7T44 62Q44 94 66 117T117 140Q148 140 168 117T189 62Q189 30 170 7T118 -16Z" />
<glyph unicode="/" horiz-adv-x="699" d="M103 -271L25 -220L583 755L674 697L103 -271Z" />
<glyph unicode="0" horiz-adv-x="636" d="M318 -16Q242 -16 189 16T104 102T58 220T43 347Q43 410 60 475T113 594T200 682T322 716Q395 716 446 683T530 597T577 479T592 352Q592 290 576 225T525 106T440 18T318 -16ZM324 55Q359 55 382 77T417 137T435 226T440
331Q440 392 436 448T419 549T383 620T320 646Q284 646 260 624T222 563T201 474T195 368Q195 326 197 282T207 198T229 125T266 74T324 55Z" />
<glyph unicode="1" horiz-adv-x="406" d="M80 0V66Q103 67 118 72T142 95T151 153V554L42 489L6 549L235 716H295V164Q295 137 295 112T292 74Q308 76 332 76T367 77V0H80Z" />
<glyph unicode="2" horiz-adv-x="533" d="M39 0Q39 52 52 93T88 167T138 228T195 283Q268 351 298 406T329 515Q329 547 321 577T292 626T233 645Q206 645 185 633T152 603Q163 592 167 577T172 551Q172 540 165 525T144 498T104 487Q73 489 57 510T40 560Q40
583 54 609T96 660T164 700T258 716Q298 716 337 706T410 674T462 616T482 527Q482 502 473 475T440 415T373 340T262 242Q207 197 181 160T150 103L346 98Q369 97 385 101T411 120T421 163H485L477 0H39Z" />
<glyph unicode="3" horiz-adv-x="560" d="M252 -16Q177 -16 129 6T58 63T35 131Q35 161 53 183T103 207Q128 208 142 197T162 171T168 143Q168 133 164 121T152 97Q163 78 188 68T242 57Q305 57 337 95T369 189Q369 223 356 257T311 313T221 335Q214 335 196 334T169
332V404Q177 403 184 403T198 403Q242 403 273 419T320 463T338 528Q339 563 330 589T300 631T245 646Q218 646 196 633T166 604Q175 593 178 579T182 555Q182 543 176 528T154 501T114 491Q83 492 67 513T51 563Q51 593 74 629T144 690T261 716Q323 716 373 699T453
643T483 539Q483 513 469 481T421 421T333 381Q429 364 474 312T520 196Q520 128 486 81T391 9T252 -16Z" />
<glyph unicode="4" horiz-adv-x="547" d="M416 164Q416 137 415 112T412 74Q429 76 453 76T487 77V0H202V66H208Q231 66 247 71T273 94T283 153V181H12V275L355 716H416V271H514V181H416V164ZM282 506L105 274L283 273L284 506H282Z" />
<glyph unicode="5" horiz-adv-x="540" d="M250 -16Q185 -16 139 5T69 57T44 121Q44 150 62 173T111 197Q136 198 150 188T170 162T176 133Q176 125 174 114T165 92Q170 81 183 73T212 60T243 55Q283 55 307 76T343 130T354 197Q354 220 351 249T337 306T301 352T234
370Q220 370 201 367T160 355T114 333L71 366L67 700H326Q361 700 381 711T402 765H465L458 603L144 597V419Q167 429 201 436T265 443Q327 443 373 425T449 376T493 304T508 218Q508 141 471 89T374 10T250 -16Z" />
<glyph unicode="6" horiz-adv-x="575" d="M287 -16Q198 -16 145 25T69 143T46 322Q46 357 53 407T77 510T125 611T204 687T320 716Q383 716 423 695T483 644T502 582Q502 555 486 533T439 511Q402 511 388 532T373 574Q373 582 376 595T387 618Q379 630 362 639T319
646Q290 644 269 628T233 585T210 525T197 457T191 390Q202 403 222 415T269 436T319 446Q375 448 415 432T481 384T519 309T532 215Q532 152 501 100T414 16T287 -16ZM292 54Q327 54 346 73T373 124T381 190Q381 213 379 242T367 300T340 347T291 366Q270 366
251 357T216 333T191 300Q191 265 196 223T212 143T243 79T292 54Z" />
<glyph unicode="7" horiz-adv-x="469" d="M200 -16Q169 -16 157 2T144 42Q144 62 153 93T178 161T209 236Q226 276 248 328T299 447T364 599L154 601Q120 602 99 587T78 530H15L22 700H448V609Q414 540 390 475T346 345T309 210T271 60Q264 32 247 8T200 -16Z" />
<glyph unicode="8" horiz-adv-x="572" d="M283 -16Q247 -16 208 -7T134 22T78 75T56 158Q56 196 75 231T125 295T188 344Q122 385 95 435T67 525Q67 574 87 610T142 669T215 704T294 716Q346 716 393 697T470 639T500 546Q500 512 482 481T437 425T381 382Q432
351 465 317T514 247T530 172Q530 107 496 66T405 4T283 -16ZM284 54Q332 53 359 81T387 151Q387 189 359 229T257 307Q217 276 199 237T178 168Q176 121 206 88T284 54ZM316 423Q348 447 369 480T392 542Q394 592 367 619T302 646Q273 646 252 634T219 600T207
553Q207 514 239 478T316 423Z" />
<glyph unicode="9" horiz-adv-x="576" d="M255 -16Q189 -16 149 3T91 52T72 115Q72 142 89 165T138 189Q176 189 189 168T202 126Q202 118 199 105T188 83Q196 71 213 63T256 55Q285 57 307 71T344 111T369 168T382 236T384 311Q368 292 332 274T258 254Q203 253
163 269T96 318T56 393T43 487Q43 554 73 605T158 686T284 716Q351 716 397 691T473 621T515 513T529 378Q529 333 523 280T500 175T453 80T374 10T255 -16ZM286 334Q307 334 326 343T360 367T384 400Q384 448 379 492T363 571T332 626T283 646Q253 646 233 627T204
576T194 510Q194 488 197 458T209 400T236 353T286 334Z" />
<glyph unicode=":" horiz-adv-x="250" d="M125 -16Q92 -16 72 7T51 62Q51 94 73 117T124 140Q155 140 175 117T196 62Q196 30 177 7T125 -16ZM125 387Q92 387 72 410T51 465Q51 497 73 520T124 543Q155 543 175 520T196 465Q196 433 177 410T125 387Z" />
<glyph unicode=";" horiz-adv-x="267" d="M122 -187L83 -159Q94 -145 107 -119T131 -62T140 -1Q133 -3 129 -3T119 -4Q92 -4 71 12T50 62Q50 92 69 114T122 137Q168 138 191 108T214 32Q214 0 204 -36T174 -110T122 -187ZM139 387Q106 387 86 410T65 465Q65 497
87 520T138 543Q169 543 189 520T210 465Q210 433 191 410T139 387Z" />
<glyph unicode="&lt;" horiz-adv-x="530" d="M490 72L40 268V357L490 557V457L169 315L490 173V72Z" />
<glyph unicode="=" horiz-adv-x="530" d="M42 493H488V415H42V493ZM42 315H488V237H42V315Z" />
<glyph unicode="&gt;" horiz-adv-x="530" d="M40 557L490 361V272L40 72V172L361 314L40 456V557Z" />
<glyph unicode="?" horiz-adv-x="503" d="M237 181Q205 181 178 197T150 250Q150 267 156 282T180 318T231 373Q266 408 289 444T312 537Q312 568 305 592T279 631T226 646Q210 646 195 641T169 629T150 614Q161 604 164 590T168 564Q168 552 161 536T139 508T100
497Q68 499 53 518T37 568Q37 604 64 638T138 694T245 716Q325 716 371 693T438 634T458 557Q458 515 437 481T385 417T323 365T271 320T250 280Q250 267 259 259T290 250Q296 250 303 251T320 254L335 203Q310 190 283 186T237 181ZM247 -16Q218 -16 197 7T175
62Q175 94 197 117T248 140Q279 140 299 117T320 62Q320 30 298 7T247 -16Z" />
<glyph unicode="@" horiz-adv-x="793" d="M415 -99Q324 -101 255 -73T140 5T70 119T47 256Q47 320 71 386T142 510T259 602T418 637Q501 637 563 609T666 532T727 425T746 303Q745 242 725 197T675 124T610 82T543 71Q525 72 508 78T477 98T456 137T452 200Q425
133 390 105T323 76Q282 76 250 110T217 221Q217 270 232 317T276 402T348 462T447 485Q469 485 501 480T566 464Q562 430 557 389T546 307T537 231T534 178Q534 164 537 150T549 128T571 119Q601 119 620 139T651 189T668 253T673 312Q673 403 639 466T546 561T413
594Q349 594 296 567T205 493T147 387T126 262Q126 186 149 128T215 31T311 -29T427 -50Q468 -50 511 -39T596 -4T669 55L691 28Q636 -34 565 -65T415 -99ZM350 145Q369 145 388 173T423 245T449 339T462 432Q455 434 445 435T425 435Q399 433 379 412T345 359T324
290T316 218Q316 183 325 164T350 145Z" />
<glyph unicode="A" horiz-adv-x="668" d="M4 0V69Q32 69 49 85T77 127T100 183L295 718H365L578 173Q584 158 594 128T606 74Q623 76 638 76T664 77V0H395V66Q423 66 433 77T443 109T432 154L412 209L195 205L179 158Q174 145 165 120T147 77Q163 79 185 79T218
80V0H4ZM220 280H387L341 405Q328 441 318 477T303 542H302Q298 525 290 491T265 410L220 280Z" />
<glyph unicode="B" horiz-adv-x="661" d="M50 0V66Q73 67 88 72T112 95T121 153V536Q121 563 122 588T125 626Q109 625 85 625T50 623V700Q119 701 188 701T327 702Q447 703 517 658T583 520Q581 491 565 464T518 414T439 379V378Q539 362 586 312T633 199Q633
134 602 90T515 23T390 0H50ZM262 71Q280 71 296 71T328 71T359 72Q420 75 448 111T476 202Q476 248 457 274T409 312T347 323Q322 323 304 323T266 322V159Q266 132 265 108T262 71ZM266 393L318 394Q360 395 384 413T419 461T430 528Q430 568 414 590T374 623T324
632Q308 632 295 627T274 605T266 548V393Z" />
<glyph unicode="C" horiz-adv-x="688" d="M566 476Q553 559 511 601T398 644Q346 644 307 620T243 556T205 465T192 360Q192 274 216 208T288 103T402 65Q465 65 527 97T631 188L679 144Q630 77 576 43T471 -4T378 -16Q301 -16 238 11T130 87T60 200T35 340Q35
408 57 475T122 596T232 683T385 716Q424 716 470 704T558 667L554 709H631V476H566Z" />
<glyph unicode="D" horiz-adv-x="759" d="M50 66Q73 67 88 72T112 95T121 153V536Q121 563 122 588T125 626Q109 625 85 625T50 623V700L341 701Q440 701 512 672T631 592T701 481T724 357Q724 296 703 233T635 118T515 33T336 0H50V66ZM266 164Q266 137 265 112T262
74Q272 75 289 75T326 74T357 73Q412 73 451 95T516 154T554 239T566 336Q566 438 538 503T460 600T339 634Q315 635 299 630T274 606T266 549V164Z" />
<glyph unicode="E" horiz-adv-x="624" d="M390 241Q390 283 377 302T342 325T292 329L266 328V164Q266 137 265 113T262 76H396Q426 76 454 89T500 134T518 220H583L578 0H50V66Q73 67 88 72T112 95T121 153V536Q121 563 122 588T125 626Q109 625 85 625T50 623V700H550L556
506H490Q490 561 471 589T424 626T369 635L333 634Q312 634 297 629T274 605T266 547V397H383L379 484H456V241H390Z" />
<glyph unicode="F" horiz-adv-x="571" d="M50 0V66Q73 67 88 72T112 95T121 153V536Q121 563 122 588T125 626Q109 625 85 625T50 623V700H550L556 506H490Q490 561 471 589T424 626T369 635L333 634Q312 634 297 629T274 605T266 547V373H369L365 459H442V216H376Q376
258 363 277T328 300T278 304H266V164Q266 137 265 112T262 74Q273 75 291 75T326 76T351 77V0H50Z" />
<glyph unicode="G" horiz-adv-x="754" d="M376 -16Q268 -16 192 31T76 160T36 340Q36 408 57 475T122 596T230 683T383 716Q410 716 444 711T512 694T574 667L570 709H647V476H582Q573 532 547 569T482 625T396 644Q344 644 306 620T242 556T205 465T192 360Q192
274 216 207T286 102T401 63Q420 63 446 66T498 75T542 90V183Q542 210 543 235T546 273Q530 272 506 272T471 270V347H737V281Q720 280 708 277T687 266T674 240T670 194V34H646Q617 34 588 26T526 8Q495 -1 458 -8T376 -16Z" />
<glyph unicode="H" horiz-adv-x="807" d="M50 0V66Q73 67 88 72T112 95T121 153V536Q121 563 122 588T125 626Q109 625 85 625T50 623V700H337V634Q315 633 299 628T275 606T266 547V391H541V536Q541 563 542 588T545 626Q529 625 505 625T470 623V700H757V634Q735
633 719 628T695 606T686 547V164Q686 137 685 112T682 74Q698 76 722 76T757 77V0H470V66Q493 67 508 72T532 95T541 153V315L266 312V164Q266 137 265 112T262 74Q278 76 302 76T337 77V0H50Z" />
<glyph unicode="I" horiz-adv-x="387" d="M337 634Q315 633 299 628T275 606T266 547V164Q266 137 265 112T262 74Q278 76 302 76T337 77V0H50V66Q73 67 88 72T112 95T121 153V536Q121 563 122 588T125 626Q109 625 85 625T50 623V700H337V634Z" />
<glyph unicode="J" horiz-adv-x="451" d="M144 -16Q105 -16 73 -2T21 36T1 91Q1 123 18 148T70 174Q108 176 124 156T142 109Q143 101 141 91T133 72Q138 62 148 59T164 56Q185 56 196 74T208 135V536Q208 563 209 588T212 626Q196 625 172 625T137 623V700H424V634Q402
633 386 628T362 606T353 547V254Q353 110 299 47T144 -16Z" />
<glyph unicode="K" horiz-adv-x="712" d="M50 0V66Q73 67 88 72T112 95T121 153V536Q121 563 122 588T125 626Q109 625 85 625T50 623V700H337V634Q315 633 299 628T275 606T266 547V395H338L415 526Q432 556 451 586T483 627Q467 626 449 625T420 623V700H665V634Q643
633 618 626T565 598T510 532L414 378Q434 365 449 351T477 319L580 174Q600 146 621 122T666 82T711 66V0H557Q549 1 531 18T493 59T459 102L360 246Q347 265 332 285T302 315H266V164Q266 137 265 112T262 74Q278 76 302 76T337 77V0H50Z" />
<glyph unicode="L" horiz-adv-x="604" d="M50 0V66Q73 67 88 72T112 95T121 153V536Q121 563 122 588T125 626Q109 625 85 625T50 623V700H337V634Q315 633 299 628T275 606T266 547V164Q266 137 265 113T262 76H396Q455 76 488 117T522 240H589L583 0H50Z" />
<glyph unicode="M" horiz-adv-x="972" d="M408 -10Q374 73 341 155T273 319Q265 338 253 372T227 452T202 545Q204 489 205 440T205 345Q205 323 205 300T205 255T204 210T204 164Q204 137 203 112T199 74Q216 76 240 76T275 77V0H47V66Q70 67 85 72T109 95T118
153L124 536Q125 563 126 588T128 626Q112 625 88 625T53 623V700H274L425 313Q434 290 445 260T466 201T481 155H482Q495 190 506 223T529 287Q568 391 606 494T684 700H915V634Q893 633 876 628T851 606T843 547L858 164Q860 137 858 112T854 74Q871 76 895 76T930
77V0H652V66Q675 67 691 72T716 95T723 153L715 365Q715 377 713 406T710 471T707 538Q704 531 701 525T696 511L501 -10H408Z" />
<glyph unicode="N" horiz-adv-x="773" d="M582 -10L262 399Q249 416 235 435T207 474H206L208 164Q208 137 207 112T204 74Q220 76 244 76T279 77V0H51V66Q74 67 89 72T113 95T122 153L120 536Q120 563 121 588T124 626Q108 625 84 625T48 623V700H205L511 314Q536
282 552 259T581 219H582V536Q582 563 583 588T585 626Q569 625 545 625T510 623V700H738V634Q716 633 700 628T676 606T667 547V-10H582Z" />
<glyph unicode="O" horiz-adv-x="769" d="M383 -16Q288 -16 222 16T114 101T54 220T35 350Q35 413 56 477T121 596T231 683T386 716Q477 716 543 683T651 596T713 477T734 350Q734 288 713 224T648 106T538 18T383 -16ZM394 57Q446 57 481 82T537 149T567 238T576
333Q576 402 564 459T527 557T464 621T373 643Q322 642 287 616T231 548T201 457T192 362Q192 315 202 262T236 162T298 86T394 57Z" />
<glyph unicode="P" horiz-adv-x="639" d="M50 66Q73 67 88 72T112 95T121 153V536Q121 563 122 588T125 626Q109 625 85 625T50 623V700Q121 701 192 701T334 702Q422 703 487 679T588 605T622 475Q621 435 603 397T550 327T462 275T338 253Q316 252 300 252T266
253V165Q266 137 265 112T262 74Q273 75 290 75T323 76T347 77V0H50V66ZM266 328Q277 327 288 326T311 325Q366 325 400 343T451 397T467 484Q467 534 454 564T419 608T375 627T333 632Q312 632 297 627T274 605T266 553V328Z" />
<glyph unicode="Q" horiz-adv-x="770" d="M751 -218Q705 -218 678 -215T629 -200T579 -164Q537 -126 507 -93T446 -38T374 -16Q282 -16 218 16T113 102T55 221T36 350Q36 413 57 477T122 596T232 683T387 716Q478 716 544 683T652 596T714 477T734 350Q734 300
720 249T678 150T608 65T509 5Q538 5 560 1T605 -14T653 -51Q688 -83 708 -103T742 -133T766 -147T794 -151V-218H751ZM394 57Q446 57 481 82T537 149T567 238T577 333Q577 402 565 459T528 557T465 621T374 643Q322 642 287 616T232 548T202 457T193 362Q193 315
203 262T237 162T298 86T394 57Z" />
<glyph unicode="R" horiz-adv-x="686" d="M50 0V66Q73 67 88 72T112 95T121 153V536Q121 563 122 588T125 626Q109 625 85 625T50 623V700Q121 701 192 701T334 702Q422 703 487 682T587 614T620 487Q619 445 600 407T542 340T444 294Q463 286 481 268T513 230L560
160Q582 126 599 106T633 77T672 66V0H507Q489 13 472 37T434 94L360 214Q347 234 338 248T318 272Q302 272 291 272T266 272V165Q266 137 265 112T262 74Q273 75 290 75T323 76T347 77V0H50ZM314 344Q370 344 404 360T453 410T469 495Q469 543 454 570T417 611T371
628T333 632Q312 632 297 627T274 605T266 553V348Q277 347 289 346T314 344Z" />
<glyph unicode="S" d="M454 476Q445 532 422 569T364 626T281 644Q238 644 206 620T173 558Q173 527 190 504T244 461T335 418Q373 403 413 383T487 336T542 272T563 186Q563 127 531 81T442 10T307 -16Q267 -16 221 -4T133 33L136 -9H59V225H125Q139 141 189
99T310 56Q346 56 373 69T415 103T430 150Q430 185 406 208T345 247T270 278Q222 298 181 320T108 372T60 438T43 525Q43 556 55 589T94 651T166 698T277 716Q317 716 364 704T446 668L442 709H520V476H454Z" />
<glyph unicode="T" horiz-adv-x="650" d="M567 474Q567 528 552 563T510 616T444 633H396V164Q396 137 395 112T392 74Q409 76 435 76T472 77V0H180V66Q203 67 218 72T242 95T251 153V632H205Q148 631 115 593T82 474H16L21 700H627L633 474H567Z" />
<glyph unicode="U" horiz-adv-x="760" d="M313 634Q291 633 275 628T251 606T242 547V272Q242 209 255 169T291 105T342 71T401 60Q456 58 495 81T555 152T576 274V536Q576 563 577 588T580 626Q564 625 540 625T504 623V700H736V634Q714 633 698 628T674 606T665
547V297Q665 211 644 151T585 54T496 1T385 -16Q301 -16 245 8T157 75T111 174T97 294V536Q97 563 98 588T101 626Q85 625 61 625T26 623V700H313V634Z" />
<glyph unicode="V" horiz-adv-x="708" d="M320 -6L90 531Q80 556 71 583T62 626Q46 625 33 625T8 623V700H303V634Q266 635 247 618T245 557Q268 501 291 444T337 331Q354 289 366 258T394 188H395Q406 218 418 255T443 326Q456 361 468 396T494 465T519 535Q524
552 535 581T560 626Q544 625 519 625T483 623V700H708V634Q674 633 649 609T602 527Q585 483 569 439T536 350T502 261T469 172T436 83T402 -6H320Z" />
<glyph unicode="W" horiz-adv-x="1016" d="M273 -6L95 533Q85 562 80 586T74 626Q55 625 41 625T13 623V700H308V634Q271 635 254 620T249 559Q264 502 279 445T309 331Q318 297 325 267T342 189H343Q347 203 355 232T372 294T389 355T400 394Q416 445 431 496T462
598T493 700H583Q597 654 611 608T640 516T668 424T697 332Q708 298 716 262T733 188H734Q743 220 752 254T772 326Q779 352 786 378T800 430T814 483T828 535Q834 559 844 584T869 626Q853 625 828 625T792 623V700H1017V634Q995 633 976 623T940 589T911 527Q871
394 830 261T748 -6H659L541 352Q528 391 520 428T503 500Q498 466 491 435T474 369L360 -6H273Z" />
<glyph unicode="X" horiz-adv-x="699" d="M35 0V66Q64 73 93 98T159 173L275 328Q235 379 195 430T114 532Q98 553 85 578T64 626Q48 625 37 625T14 623V700H318V634H308Q277 634 265 625T256 601T275 566Q298 538 320 510T364 453L440 558Q461 587 473 600T499
626Q483 625 459 625T424 623V700H651V634Q628 631 606 618T560 582T510 521L414 390Q446 350 477 310T539 230T602 150Q619 129 633 110T654 74Q671 76 678 76T695 77V0H396V66Q433 66 444 75T450 99T429 134Q404 166 379 198T327 263Q305 233 283 203T239 142Q218
114 207 100T184 74Q201 75 223 76T255 77V0H35Z" />
<glyph unicode="Y" horiz-adv-x="667" d="M203 0V66Q226 67 241 72T265 95T274 153V240L90 531Q76 554 64 582T52 626Q36 625 25 625T3 623V700H298V634Q269 636 250 628T227 603T239 557L315 432Q320 424 330 407T350 370T366 335H367Q372 347 384 371T414 433L466
535Q471 546 480 563T499 598T519 627Q503 626 478 625T442 623V700H663V634Q628 629 603 606T549 527Q517 465 484 402T419 277Q419 263 419 249T419 221T419 192T419 164Q419 137 418 112T415 74Q432 76 458 76T495 77V0H203Z" />
<glyph unicode="Z" horiz-adv-x="604" d="M40 0V75Q115 189 189 303T339 531Q358 560 374 583T409 629L238 635Q183 637 147 603T111 487H45L51 700H560V625L272 189Q251 158 230 128T186 70L369 66Q425 65 460 98T495 214H561L555 0H40Z" />
<glyph unicode="[" horiz-adv-x="386" d="M62 -255L63 755H383V684L192 681L188 -181L385 -184V-255H62Z" />
<glyph unicode="\" horiz-adv-x="699" d="M596 -271L25 697L116 755L674 -220L596 -271Z" />
<glyph unicode="]" horiz-adv-x="386" d="M324 755L323 -255H3V-184L194 -181L198 681L1 684V755H324Z" />
<glyph unicode="^" horiz-adv-x="823" d="M626 437L408 643L191 441H60L368 716H457L763 437H626Z" />
<glyph unicode="_" horiz-adv-x="832" d="M108 -155V-50L723 -54V-155H108Z" />
<glyph unicode="`" horiz-adv-x="524" d="M303 565L182 671Q169 684 161 701T155 737T174 770Q190 783 207 783T241 773T267 746L349 606L303 565Z" />
<glyph unicode="a" horiz-adv-x="524" d="M319 0Q317 14 317 23T315 46Q281 12 243 -2T166 -16Q102 -16 66 22T30 117Q30 165 54 199T119 254T209 287T309 301V353Q309 379 303 400T281 433T237 444Q218 443 200 436T169 416Q177 407 179 397T181 378Q181 358
165 337T114 316Q84 317 68 337T52 384Q52 424 80 453T157 499T263 516Q351 516 399 471T448 325Q448 291 448 267T448 219T447 161Q447 147 446 122T443 73Q460 75 479 75T508 76V0H319ZM308 230Q280 227 255 220T212 201T183 172T172 134Q173 106 190 94T229
82Q252 82 272 92T308 118Q308 128 308 137T308 157Q308 175 308 193T308 230Z" />
<glyph unicode="b" horiz-adv-x="573" d="M63 565Q63 583 63 606T66 652Q50 651 29 651T-4 649V725Q43 725 74 730T124 742T150 755H204V462Q238 492 273 504T339 516Q399 516 444 485T515 397T541 263Q541 183 512 120T428 20T298 -16Q271 -16 230 -5T153 44L123
0H63V565ZM204 150Q204 116 215 96T243 67T277 57Q322 56 347 83T383 154T394 248Q394 294 383 335T348 401T285 426Q260 425 239 414T204 383V150Z" />
<glyph unicode="c" horiz-adv-x="518" d="M277 -16Q210 -16 154 14T65 101T31 239Q31 296 50 346T103 434T185 494T291 516Q355 516 397 497T461 446T483 379Q483 350 466 328T416 304Q378 303 363 325T348 369Q348 378 351 390T360 413Q353 428 339 435T311 444T287
446Q239 443 208 398T177 268Q177 218 189 175T231 103T309 73Q351 72 391 93T459 150L505 105Q469 55 430 29T353 -6T277 -16Z" />
<glyph unicode="d" horiz-adv-x="596" d="M234 -16Q174 -16 129 15T58 103T32 237Q32 318 63 381T150 480T280 516Q307 516 328 511T369 498V564Q369 578 370 604T373 652Q357 651 335 650T302 649V725Q349 725 380 730T430 742T456 755H510V161Q510 147 509 122T506
73Q523 75 542 75T571 76V0H381Q380 11 379 23T375 46Q342 12 307 -2T234 -16ZM286 75Q312 75 334 88T369 123Q369 138 369 153T369 183V423Q359 431 339 436T298 442Q252 441 226 413T190 342T179 252Q179 210 189 169T223 102T286 75Z" />
<glyph unicode="e" horiz-adv-x="538" d="M278 -16Q205 -16 149 16T62 108T31 249Q31 319 62 380T149 478T281 516Q323 516 363 505T435 465T487 389T506 269L178 263Q178 209 191 166T236 98T319 73Q339 73 364 80T416 103T466 148L511 106Q475 55 434 29T353
-7T278 -16ZM184 333H368Q367 375 357 399T328 435T286 446Q242 446 217 415T184 333Z" />
<glyph unicode="f" horiz-adv-x="369" d="M103 529Q103 650 156 702T299 755Q346 755 374 742T414 708T426 667Q426 641 410 621T364 600Q335 599 319 615T303 657Q303 662 303 667T305 677Q300 682 294 683T282 685Q266 685 257 676T245 652T242 623V500H354V423L243
420L244 163Q244 149 243 123T240 73Q257 75 278 75T310 76V0H43V65Q71 65 83 76T99 107T103 154V418L30 417V500H103V529Z" />
<glyph unicode="g" horiz-adv-x="557" d="M256 -271Q170 -271 120 -253T49 -204T28 -140Q28 -119 37 -98T66 -58T123 -25Q82 -14 66 10T49 63Q49 89 70 121T146 171Q104 188 77 224T48 311Q46 371 78 417T162 490T271 516Q297 516 331 509T390 485Q401 516 418
543T461 588T517 606Q551 606 568 589T586 542Q586 530 581 516T562 491T524 481Q509 481 494 492T476 520Q463 516 450 494T435 455Q464 430 479 397T494 326Q494 268 462 224T378 154T267 128Q254 128 238 129T207 131Q185 131 170 123T155 101Q155 82 184 75T283
64Q360 60 417 45T507 -4T539 -95Q539 -138 514 -170T448 -225T356 -259T256 -271ZM285 -202Q356 -202 392 -176T429 -122Q429 -101 413 -88T366 -66T285 -56Q263 -54 234 -53T183 -48Q168 -60 160 -78T151 -113Q149 -153 185 -177T285 -202ZM271 195Q298 195 316
212T344 255T354 308Q354 343 345 375T318 428T270 449Q230 449 208 413T186 331Q186 296 196 265T225 214T271 195Z" />
<glyph unicode="h" horiz-adv-x="621" d="M339 65Q367 65 379 76T395 107T399 154L398 296Q397 361 378 392T317 424Q292 424 268 413T226 387V161Q226 147 225 122T222 73Q239 75 258 75T287 76V0H25V65Q53 65 65 76T81 107T84 154V565Q84 583 85 606T88 652Q72
651 51 651T18 649V725Q65 725 96 730T146 742T172 755H226V460Q246 476 272 488T325 508T372 516Q464 516 502 464T541 295V161Q541 147 540 122T537 73Q553 75 572 75T602 76V0H339V65Z" />
<glyph unicode="i" horiz-adv-x="327" d="M41 65Q69 65 81 76T96 107T100 154V320Q100 338 101 361T104 407Q88 406 67 406T34 404V480Q80 480 112 485T162 497T188 510H242V161Q242 147 241 122T238 73Q254 75 273 75T303 76V0H41V65ZM166 589Q132 589 110 613T88
671Q88 705 111 729T165 753Q197 753 218 729T240 671Q240 637 220 613T166 589Z" />
<glyph unicode="j" horiz-adv-x="302" d="M21 -271Q-35 -271 -61 -246T-88 -189Q-88 -163 -72 -143T-25 -121Q2 -120 19 -137T36 -180Q36 -184 36 -188T34 -197Q40 -201 51 -201Q70 -201 78 -189T90 -158T93 -126L90 320Q90 338 91 361T94 407Q78 406 57 406T24
404V480Q71 480 102 485T152 497T178 510H232V2Q232 -90 205 -151T129 -241T21 -271ZM161 589Q127 589 105 613T83 671Q83 705 106 729T160 753Q192 753 213 729T235 671Q235 637 215 613T161 589Z" />
<glyph unicode="k" horiz-adv-x="594" d="M25 0V65Q53 65 65 76T81 107T85 154V565Q85 583 86 606T89 652Q73 651 52 651T19 649V725Q65 725 96 730T147 742T172 755H227V299H275L347 382Q360 396 368 406T386 424H333V500H558V436Q523 432 496 420T450 390T416
357L352 285Q367 278 381 265T417 223L484 135Q490 128 499 116T521 93T547 73T576 65V0H461Q429 0 405 22T350 87Q332 111 313 138T277 190T250 229L227 228V161Q227 147 226 122T223 73Q239 75 258 75T288 76V0H25Z" />
<glyph unicode="l" horiz-adv-x="312" d="M25 65Q53 65 65 76T81 107T84 154V565Q84 583 85 606T88 652Q72 651 51 651T18 649V725Q65 725 96 730T146 742T172 755H226V161Q226 147 225 122T222 73Q239 75 258 75T287 76V0H25V65Z" />
<glyph unicode="m" horiz-adv-x="920" d="M41 0V65Q69 65 81 76T96 107T100 154V322Q100 340 101 362T104 407Q88 406 67 406T34 404V480Q80 480 112 485T162 497T188 510H237Q239 500 239 485T241 460Q275 486 314 501T389 516Q435 516 465 500T513 450Q549 480
592 498T676 516Q757 516 798 470T840 308V161Q840 147 839 122T836 73Q852 75 871 75T901 76V0H648V65Q671 65 681 76T695 107T698 154V307Q697 372 677 397T622 423Q596 424 574 414T533 390Q538 370 540 346T542 295Q542 261 542 228T542 161Q542 147 541 122T538
73Q554 75 573 75T603 76V0H345V65Q371 65 382 76T397 107T400 154L399 310Q399 375 380 399T327 424Q302 424 281 413T242 387Q242 374 242 362T242 337V161Q242 147 241 122T238 73Q254 75 271 75T298 76V0H41Z" />
<glyph unicode="n" horiz-adv-x="636" d="M41 0V65Q69 65 81 76T96 107T100 154V322Q100 340 101 362T104 407Q88 406 67 406T34 404V480Q80 480 112 485T162 497T188 510H237Q239 497 239 491T239 480T243 460Q263 476 289 488T341 508T387 516Q479 516 517 464T556
295V161Q556 147 555 122T552 73Q569 75 588 75T617 76V0H355V65Q383 65 395 76T411 107T415 154L414 296Q414 361 396 392T333 424Q308 424 284 413T242 387Q242 373 242 359T242 330V161Q242 147 241 122T238 73Q254 75 273 75T303 76V0H41Z" />
<glyph unicode="o" horiz-adv-x="566" d="M286 -16Q214 -16 156 15T65 103T31 239Q31 322 65 384T157 481T283 516Q355 516 412 485T502 397T535 259Q535 175 503 113T415 18T286 -16ZM290 55Q330 56 350 83T379 151T387 234Q387 271 382 309T364 378T332 428T281
446Q242 445 220 418T188 351T178 266Q178 215 189 166T224 86T290 55Z" />
<glyph unicode="p" horiz-adv-x="601" d="M31 -255V-190Q59 -190 71 -179T87 -148T91 -101V322Q91 340 92 362T95 407Q79 406 57 406T24 404V480Q71 480 102 485T152 497T178 510H227Q229 500 230 486T232 462Q267 492 301 504T367 516Q427 516 472 485T543 397T569
263Q569 183 538 120T452 20T321 -16Q294 -16 273 -11T232 2V-94Q232 -108 232 -133T229 -182Q245 -180 264 -180T293 -179V-255H31ZM305 59Q351 60 376 86T412 156T422 248Q422 294 411 335T376 401T313 426Q288 425 267 414T232 382Q232 351 232 321T232 260T232
200T232 139T232 77Q243 70 263 64T305 59Z" />
<glyph unicode="q" horiz-adv-x="573" d="M310 -255V-190Q338 -190 350 -179T365 -148T369 -101L370 40Q338 9 304 -3T234 -16Q174 -16 129 15T58 103T32 237Q32 318 63 381T150 480T282 516Q338 516 370 505T422 494Q430 494 440 498T457 510H511V-94Q511 -108
510 -133T507 -182Q523 -180 542 -180T572 -179V-255H310ZM286 74Q311 74 333 87T369 121V355Q369 393 357 411T327 436T292 443Q248 443 223 415T188 343T179 252Q180 210 190 169T224 101T286 74Z" />
<glyph unicode="r" horiz-adv-x="480" d="M41 65Q69 65 81 76T96 107T100 154V322Q100 340 101 362T104 407Q88 406 67 406T34 404V480H74Q113 480 145 490T188 510H237Q239 500 240 473T241 424Q268 457 292 477T339 506T387 516Q422 516 448 497T474 433Q474
418 467 402T445 374T404 363Q384 363 363 375T339 421Q319 421 299 405T264 366T242 324V161Q242 147 241 122T238 73Q254 75 273 75T303 76V0H41V65Z" />
<glyph unicode="s" horiz-adv-x="485" d="M271 -16Q228 -16 187 -5T123 23L125 -7H49L45 165H110Q113 135 134 110T189 71T265 56Q282 56 297 61T323 77T334 106Q334 125 321 137T282 160T218 185Q187 197 156 210T98 241T55 287T39 355Q39 384 50 412T84 464T142
502T227 516Q254 516 288 508T347 482V511H423V334H358Q352 369 334 394T286 432T221 446Q196 446 176 434T155 393Q155 370 171 357T215 334T277 313Q328 296 367 273T430 218T453 138Q453 86 427 52T360 1T271 -16Z" />
<glyph unicode="t" horiz-adv-x="413" d="M239 -16Q209 -16 181 -9T131 17T96 75T83 176L85 417H17V500Q48 501 77 521T126 573T154 640H228L227 500H354V423L227 420L226 174Q226 151 230 129T248 92T286 77Q300 77 324 87T377 137L425 92Q398 52 369 30T314
-2T267 -14T239 -16Z" />
<glyph unicode="u" horiz-adv-x="618" d="M248 -16Q188 -16 152 7T99 79T82 205V320Q82 338 83 361T85 407Q69 406 48 406T15 404V480H25Q87 480 123 490T169 510H224V204Q224 139 241 108T295 76Q321 76 347 90T391 124V320Q391 338 392 361T395 407Q379 406
358 406T325 404V480H349Q396 480 432 490T478 510H533V161Q533 147 532 122T529 73Q545 75 564 75T594 76V0H404Q403 13 402 26T398 52Q367 26 332 5T248 -16Z" />
<glyph unicode="v" horiz-adv-x="538" d="M227 -3L69 344Q58 369 54 382T48 404T43 426L6 424V500H240V436Q219 435 212 424T207 396T216 358L268 230Q276 211 284 191T300 151H301Q309 172 316 193T331 235L374 357Q383 382 390 397T407 428L345 424V500H535V436Q512
432 494 411T463 363T442 316L314 -3H227Z" />
<glyph unicode="w" horiz-adv-x="811" d="M193 -3L72 344Q63 370 59 383T52 405T47 426L8 424V500H248V436Q217 435 212 412T215 358L249 236Q255 214 260 190T270 141Q275 162 280 187T297 249L370 500H479L559 224Q565 203 571 179T583 134Q587 154 594 178T607
221L646 348Q654 375 660 392T675 428L618 424V500H808V436Q788 436 773 423T747 392T728 356T718 328L604 -3H498L429 210Q426 221 420 242T407 287T394 333Q389 305 379 269T360 203T347 162L292 -3H193Z" />
<glyph unicode="x" horiz-adv-x="548" d="M40 0V64Q60 72 78 89T116 129L203 229Q187 248 171 267T138 306T105 344Q93 359 74 383T48 426L21 424V500H242V436Q214 435 217 419T239 381L285 327L324 373Q336 387 348 401T373 428L324 424V500H500V436Q480 428
463 416T430 390T400 356L333 274L449 139Q463 123 475 108T497 74L531 76V0H295V64Q327 66 328 79T312 113L252 176L205 120Q200 113 185 96T160 72L206 76V0H40Z" />
<glyph unicode="y" horiz-adv-x="551" d="M148 -271Q110 -271 84 -249T57 -189Q57 -162 74 -142T120 -120Q142 -119 157 -134T173 -177Q173 -180 173 -183T172 -190Q174 -190 177 -189Q186 -186 196 -173T217 -137Q228 -114 238 -86T257 -26L99 291Q71 347 63
375T51 426L5 424V500H254V436V436Q217 432 214 408T222 358L320 134Q330 160 346 214T384 333Q388 346 394 363T409 398T426 427L369 424V500H547V436Q516 429 496 398T459 322L334 -35Q306 -116 281 -168T225 -246T148 -271Z" />
<glyph unicode="z" horiz-adv-x="514" d="M35 0V72L265 375Q282 397 297 414T316 435L181 433Q158 433 144 416T120 370T106 307H44L58 500H463V437L240 134Q226 115 212 100T184 73L325 69Q357 68 375 85T404 131T419 196H481L466 0H35Z" />
<glyph unicode="{" horiz-adv-x="368" d="M333 -271Q257 -271 207 -247T131 -175T106 -57Q106 -28 108 7T113 76T116 136Q116 187 96 207T20 228H-3V299H20Q76 299 96 317T116 386Q116 425 111 467T106 554Q106 625 131 670T206 738T333 760H361V689Q319 691 293
685T254 652T241 568Q241 553 242 534T246 495T251 453Q256 399 236 358T176 293T84 264V262Q135 257 174 233T235 168T252 73Q250 48 248 21T243 -31T241 -71Q241 -128 253 -156T292 -192T361 -200V-271H333Z" />
<glyph unicode="|" horiz-adv-x="259" d="M63 -271L61 760H199L195 -271H63Z" />
<glyph unicode="}" horiz-adv-x="368" d="M35 -271H7V-200Q49 -201 75 -193T114 -156T127 -71Q127 -55 125 -31T121 20T116 73Q112 127 133 167T193 232T284 262V264Q232 269 193 293T133 358T117 453Q119 474 121 494T125 534T127 568Q127 625 115 651T76 684T7
689V760H35Q111 760 161 738T237 671T262 554Q262 510 257 468T252 386Q252 335 272 317T348 299H371V228H348Q293 228 273 208T252 136Q252 110 254 76T259 7T262 -57Q262 -127 237 -175T162 -247T35 -271Z" />
<glyph unicode="~" horiz-adv-x="530" d="M369 201Q331 201 306 212T260 238T218 264T166 276Q126 276 98 262T43 228V346Q75 372 103 385T170 399Q209 399 233 389T277 364T315 338T361 324Q397 321 429 334T488 371V253Q467 231 438 216T369 201Z" />
<glyph unicode="&#xa0;" horiz-adv-x="263" />
<glyph unicode="&#xa1;" horiz-adv-x="237" d="M152 287L190 -125Q193 -157 175 -186T118 -216Q78 -216 61 -187T47 -125L84 287H152ZM119 516Q148 516 169 493T191 438Q191 406 169 383T118 360Q87 360 67 383T46 438Q46 470 68 493T119 516Z" />
<glyph unicode="&#xa2;" horiz-adv-x="565" d="M257 -137V-13Q199 -4 153 27T79 112T51 239Q51 306 77 363T150 459T260 512L259 626H348L347 514Q425 506 464 466T503 379Q503 350 486 328T436 304Q398 303 383 325T368 369Q368 378 371 390T380 413Q373 428
359 435T331 444T307 446Q259 443 228 398T197 268Q197 218 209 175T251 103T329 73Q371 72 411 93T479 150L525 105Q481 44 434 19T341 -13L340 -137H257Z" />
<glyph unicode="&#xa3;" horiz-adv-x="573" d="M121 375Q116 397 113 421T109 475Q109 552 138 606T216 688T319 716Q381 716 418 696T471 647T488 592Q488 563 472 541T424 518Q400 517 385 527T363 552T356 579Q356 592 359 605T373 631Q369 637 358 641T330
646Q294 646 274 625T245 574T236 512Q236 473 240 439T250 375H408V298L266 295Q272 266 267 236T246 180T201 134Q225 143 244 146T281 149Q318 149 344 137T391 112T431 99Q442 99 453 113T466 156H531Q528 83 500 34T415 -16Q399 -16 384 -12T354 -1T325 14T297
32Q274 46 245 58T190 72Q181 35 158 10T107 -16Q76 -16 64 1T51 40Q51 69 76 94T138 133Q145 146 150 167T155 204Q155 229 152 251T143 293L64 292V375H121Z" />
<glyph unicode="&#xa4;" horiz-adv-x="566" d="M135 27L63 85L120 151Q93 199 93 254Q93 282 101 309T123 361L63 430L135 488L185 425Q205 438 230 445T283 453Q312 453 336 446T382 425L432 487L504 430L443 361Q458 336 465 309T473 254Q473 196 446 151L504
85L432 27L384 87Q363 75 338 69T283 62Q254 62 229 68T183 87L135 27ZM283 138Q303 138 316 151T338 184T349 227T352 269Q352 283 349 302T337 338T316 367T283 379Q264 379 251 368T230 339T219 302T215 269Q215 250 218 228T228 185T249 151T283 138Z" />
<glyph unicode="&#xa5;" horiz-adv-x="722" d="M231 0V66Q252 67 267 71T292 90T302 138H193V215H303V265H193V342H242L118 531Q103 554 92 582T80 626Q64 625 54 625T32 623V700H326V634Q297 636 278 628T255 602T267 557L344 432Q349 425 358 408T378 371T394
336Q409 366 414 377T419 389T420 390T424 398T442 433L494 535Q499 546 508 563T528 598T547 627Q531 626 506 625T470 623V700H691V634Q657 629 632 606T578 527L479 340H547V267L447 266V214L547 213V140L447 139Q447 126 446 114T445 91T443 74Q460 76 486
76T523 77V0H231Z" />
<glyph unicode="&#xa6;" horiz-adv-x="248" d="M70 375L67 760H180L176 375H70ZM70 -271L67 113H180L176 -271H70Z" />
<glyph unicode="&#xa7;" horiz-adv-x="549" d="M267 -228Q212 -228 171 -208T106 -157T82 -93Q82 -65 98 -44T142 -22Q166 -21 180 -31T200 -55T207 -80Q207 -90 205 -101T196 -122Q204 -138 224 -147T266 -157Q297 -157 316 -145T346 -115T356 -76Q356 -45 339
-21T295 24T240 61T188 93Q152 117 119 145T65 211T44 297Q44 337 65 377T122 451Q99 480 91 510T82 569Q81 598 91 631T125 693T187 741T280 760Q335 760 376 740T441 689T465 625Q465 597 450 577T405 554Q381 554 367 563T347 587T340 612Q340 623 342 633T351
653Q344 669 326 678T284 688Q254 688 234 676T205 645T194 606Q195 572 212 547T255 501T310 463T365 429Q402 406 433 377T485 311T505 226Q505 187 484 146T428 71Q441 51 454 25T468 -38Q468 -66 457 -99T422 -161T360 -209T267 -228ZM377 127Q385 141 388
158T392 192Q392 220 377 243T336 287T282 326T224 362T173 395Q166 380 163 364T159 331Q159 303 174 280T215 236T269 197T327 161T377 127Z" />
<glyph unicode="&#xa8;" horiz-adv-x="427" d="M300 600Q273 600 254 622T234 675Q234 706 254 728T301 751Q330 751 348 729T367 675Q367 644 347 622T300 600ZM126 600Q99 600 80 622T60 675Q60 706 80 728T127 751Q156 751 174 729T193 675Q193 644 173 622T126 600Z" />
<glyph unicode="&#xa9;" horiz-adv-x="915" d="M459 -71Q367 -71 292 -41T161 45T76 176T46 340Q46 426 77 501T164 633T296 722T461 755Q551 755 626 723T755 633T839 500T869 339Q869 254 838 180T750 49T620 -39T459 -71ZM462 -14Q540 -14 602 14T708 91T775
204T799 340Q799 412 775 476T707 590T600 668T459 697Q383 697 320 669T212 591T142 477T117 340Q117 268 141 204T210 91T319 14T462 -14ZM466 94Q397 94 343 126T258 214T227 338Q227 382 241 427T286 510T361 570T467 590Q497 589 524 582T577 555L576 586H652V411H585Q578
471 546 496T473 521Q438 521 409 499T363 438T346 349Q346 304 363 266T414 205T494 181Q530 180 566 198T631 254L679 209Q646 164 607 139T532 104T466 94Z" />
<glyph unicode="&#xaa;" horiz-adv-x="386" d="M133 367Q87 367 61 388T35 447Q35 476 51 496T93 531T152 552T215 562V605Q215 618 213 630T204 651T179 661Q170 661 159 658T141 647Q145 642 146 634T148 619Q148 605 137 587T98 569Q75 569 63 583T50 618Q50
644 68 666T117 702T189 716Q249 716 281 685T313 586Q313 561 313 530T312 472Q312 462 314 450T329 438Q333 438 337 438T346 443L366 414Q351 393 329 380T285 367Q264 367 246 381T223 424Q209 396 182 382T133 367ZM166 441Q178 441 190 447T215 466Q215 478
215 490T215 514Q195 513 177 507T148 490T138 464Q139 455 145 448T166 441Z" />
<glyph unicode="&#xab;" horiz-adv-x="493" d="M287 -17L20 261V285L284 554L331 508L145 275V274L334 32L287 -17ZM410 60L240 259V282L409 476L455 437L357 268V267L457 98L410 60Z" />
<glyph unicode="&#xac;" horiz-adv-x="530" d="M398 149L395 266L36 264V362L486 359V149H398Z" />
<glyph unicode="&#xad;" horiz-adv-x="293" d="M51 260V368H419V263L51 260Z" />
<glyph unicode="&#xae;" horiz-adv-x="915" d="M459 -71Q367 -71 292 -41T161 45T76 176T46 340Q46 426 77 501T164 633T296 722T461 755Q551 755 626 723T755 633T839 500T869 339Q869 254 838 180T750 49T620 -39T459 -71ZM462 -14Q540 -14 602 14T708 91T775
204T799 340Q799 412 775 476T707 590T600 668T459 697Q383 697 320 669T212 591T142 477T117 340Q117 268 141 204T210 91T319 14T462 -14ZM261 118V162Q284 164 296 172T309 221V474Q309 494 310 510T312 535L261 533V585Q293 585 324 585T387 586T450 586Q538
586 590 554T641 441Q640 413 629 387T593 342T529 311Q542 306 551 294T569 268Q599 222 614 200T640 170T668 162V118H563Q551 127 538 143T512 181Q482 231 469 254T453 284T445 297Q435 297 427 297T407 297V229Q407 211 407 194T406 168L462 170V118H261ZM435
354Q468 354 490 365T524 397T536 447Q536 486 520 503T483 525T448 530Q427 530 417 520T407 476V357Q415 355 421 355T435 354Z" />
<glyph unicode="&#xaf;" horiz-adv-x="374" d="M45 627V723H329V631L45 627Z" />
<glyph unicode="&#xb0;" horiz-adv-x="382" d="M190 395Q141 395 105 416T48 474T28 556Q28 602 50 638T110 695T192 716Q242 716 278 695T334 638T354 556Q354 510 332 474T272 417T190 395ZM191 466Q226 466 248 493T270 556Q270 592 248 619T191 646Q157 646
135 619T113 556Q113 520 135 493T191 466Z" />
<glyph unicode="&#xb1;" horiz-adv-x="530" d="M42 399H488V321H42V399ZM304 583V137H226V583H304ZM42 59H488V-19H42V59Z" />
<glyph unicode="&#xb2;" horiz-adv-x="375" d="M46 302Q47 348 61 380T97 438T146 487Q185 522 196 552T208 602Q208 632 195 645T161 658Q151 658 141 653T127 642Q135 635 138 626T141 611Q141 598 129 581T90 563Q68 564 56 579T43 617Q43 638 58 661T104 700T179
716Q214 716 245 706T297 672T317 609Q317 575 295 547T237 492T165 432Q151 420 145 410T131 386L254 384Q263 384 269 386T279 397T283 421H331L325 302H46Z" />
<glyph unicode="&#xb3;" horiz-adv-x="365" d="M168 292Q107 292 72 322T36 389Q36 411 50 428T86 446Q114 447 124 431T134 396Q134 391 131 380T120 361Q128 351 142 349T164 346Q193 346 210 365T227 413Q227 434 218 450T192 476T147 485Q140 485 130 485T113
484V538Q122 538 131 538T148 537Q173 537 187 548T208 574T213 605Q213 632 200 647T162 662Q149 662 140 658T126 650Q134 644 137 634T140 619Q140 606 130 589T91 572Q69 573 56 587T42 623Q42 642 56 663T101 700T178 716Q235 716 274 690T313 611Q313 583
291 557T237 523Q284 513 307 487T332 423Q334 368 293 330T168 292Z" />
<glyph unicode="&#xb4;" horiz-adv-x="282" d="M346 565L300 606L382 746Q393 763 408 772T442 782T476 770Q492 756 494 738T489 702T467 671L346 565Z" />
<glyph unicode="&#xb5;" horiz-adv-x="612" d="M154 -271Q116 -271 100 -242T84 -167V500H209V184Q209 153 219 130T248 93T291 79Q309 79 328 87T366 116V500H491L490 142Q490 134 491 122T497 101T514 91Q521 91 530 95T551 109L584 67Q568 43 535 19T463 -5Q434
-5 411 6T379 44Q351 13 327 3T272 -7Q240 -7 211 13T158 82L152 77Q172 14 185 -28T205 -100T215 -152T218 -195Q218 -223 205 -247T154 -271Z" />
<glyph unicode="&#xb6;" horiz-adv-x="573" d="M166 -255L168 401Q136 407 107 423T60 469T41 549Q41 601 63 634T120 683T193 700H485L483 -255H372L374 631L280 630L278 -255H166Z" />
<glyph unicode="&#xb7;" horiz-adv-x="226" d="M115 264Q82 264 62 287T41 342Q41 374 63 397T114 420Q145 420 165 397T186 342Q186 310 167 287T115 264Z" />
<glyph unicode="&#xb8;" horiz-adv-x="325" d="M53 -259L45 -207Q57 -205 77 -201T117 -189T151 -170T165 -144Q165 -127 152 -122T123 -121T97 -133L60 -117L91 10H167L139 -69Q151 -62 172 -58T207 -53Q239 -54 259 -70T280 -123Q280 -158 256 -182T196 -221T121
-246T53 -259Z" />
<glyph unicode="&#xb9;" horiz-adv-x="278" d="M64 301V339Q84 340 94 347T104 389V619L41 582L21 621L167 716H202V395Q202 380 202 366T200 344Q209 345 222 345T243 345V301H64Z" />
<glyph unicode="&#xba;" horiz-adv-x="378" d="M188 364Q140 364 105 386T50 446T30 533Q30 585 49 626T105 692T191 716Q240 716 275 695T329 635T348 545Q349 492 330 451T274 387T188 364ZM193 420Q217 421 230 449T244 531Q244 571 239 600T221 646T189 662Q165
661 151 633T137 550Q137 510 143 481T161 436T193 420Z" />
<glyph unicode="&#xbb;" horiz-adv-x="493" d="M206 -17L159 32L348 274V275L162 508L209 554L473 285V261L206 -17ZM83 60L36 98L136 267V268L38 437L84 476L253 282V259L83 60Z" />
<glyph unicode="&#xbc;" horiz-adv-x="777" d="M64 301V339Q84 340 94 347T104 389V619L41 582L21 621L167 716H202V395Q202 380 202 366T200 344Q209 345 222 345T243 345V301H64ZM188 -16L123 32L566 716L634 663L188 -16ZM539 -4V34Q559 35 569 42T580 84V97L429
98V156L642 411H677V152L736 151V96H677Q677 79 677 64T675 39Q684 40 697 40T718 40V-4H539ZM582 153L586 273L496 155L582 153Z" />
<glyph unicode="&#xbd;" horiz-adv-x="795" d="M64 301V339Q84 340 94 347T104 389V619L41 582L21 621L167 716H202V395Q202 380 202 366T200 344Q209 345 222 345T243 345V301H64ZM188 -16L123 32L566 716L634 663L188 -16ZM469 -3Q470 43 484 75T520 133T569
182Q608 217 619 247T631 297Q631 327 618 340T584 353Q574 353 564 348T550 337Q558 330 561 321T564 306Q564 293 552 276T513 258Q491 259 479 274T466 312Q466 333 481 356T527 395T602 411Q637 411 668 401T720 367T740 304Q740 270 718 242T660 187T588 127Q574
115 568 105T554 81L677 79Q686 79 692 81T702 92T706 116H754L748 -3H469Z" />
<glyph unicode="&#xbe;" horiz-adv-x="816" d="M168 292Q107 292 72 322T36 389Q36 411 50 428T86 446Q114 447 124 431T134 396Q134 391 131 380T120 361Q128 351 142 349T164 346Q193 346 210 365T227 413Q227 434 218 450T192 476T147 485Q140 485 130 485T113
484V538Q122 538 131 538T148 537Q173 537 187 548T208 574T213 605Q213 632 200 647T162 662Q149 662 140 658T126 650Q134 644 137 634T140 619Q140 606 130 589T91 572Q69 573 56 587T42 623Q42 642 56 663T101 700T178 716Q235 716 274 690T313 611Q313 583
291 557T237 523Q284 513 307 487T332 423Q334 368 293 330T168 292ZM227 -16L162 32L605 716L673 663L227 -16ZM578 -4V34Q598 35 608 42T619 84V97L468 98V156L681 411H716V152L775 151V96H716Q716 79 716 64T714 39Q723 40 736 40T757 40V-4H578ZM621 153L625
273L535 155L621 153Z" />
<glyph unicode="&#xbf;" horiz-adv-x="493" d="M261 319Q293 319 320 304T348 250Q348 234 342 219T318 182T267 127Q232 93 209 57T186 -37Q186 -68 193 -92T220 -131T272 -146Q289 -146 303 -141T330 -129T348 -114Q338 -104 334 -89T330 -64Q330 -51 337 -35T359
-7T398 3Q430 2 445 -18T461 -68Q461 -103 434 -137T360 -194T253 -216Q174 -216 127 -193T60 -134T40 -57Q40 -15 61 19T113 83T175 135T227 180T248 220Q248 233 239 241T208 250Q202 250 195 249T178 246L163 297Q188 310 215 314T261 319ZM251 516Q280 516
301 493T323 438Q323 406 301 383T250 360Q219 360 199 383T178 438Q178 470 200 493T251 516Z" />
<glyph unicode="&#xc0;" horiz-adv-x="668" d="M4 0V69Q32 69 49 85T77 127T100 183L295 718H365L578 173Q584 158 594 128T606 74Q623 76 638 76T664 77V0H395V66Q423 66 433 77T443 109T432 154L412 209L195 205L179 158Q174 145 165 120T147 77Q163 79 185
79T218 80V0H4ZM220 280H387L341 405Q328 441 318 477T303 542H302Q298 525 290 491T265 410L220 280ZM352 750L210 825Q195 835 184 850T171 884T180 919Q193 936 210 939T245 937T277 917L388 799L352 750Z" />
<glyph unicode="&#xc1;" horiz-adv-x="668" d="M4 0V69Q32 69 49 85T77 127T100 183L295 718H365L578 173Q584 158 594 128T606 74Q623 76 638 76T664 77V0H395V66Q423 66 433 77T443 109T432 154L412 209L195 205L179 158Q174 145 165 120T147 77Q163 79 185
79T218 80V0H4ZM220 280H387L341 405Q328 441 318 477T303 542H302Q298 525 290 491T265 410L220 280ZM289 750L253 799L364 917Q378 931 396 937T431 940T461 919Q473 902 471 884T458 851T431 825L289 750Z" />
<glyph unicode="&#xc2;" horiz-adv-x="668" d="M4 0V69Q32 69 49 85T77 127T100 183L295 718H365L578 173Q584 158 594 128T606 74Q623 76 638 76T664 77V0H395V66Q423 66 433 77T443 109T432 154L412 209L195 205L179 158Q174 145 165 120T147 77Q163 79 185
79T218 80V0H4ZM220 280H387L341 405Q328 441 318 477T303 542H302Q298 525 290 491T265 410L220 280ZM469 774L330 861L187 776L160 821L325 971H344L501 821L469 774Z" />
<glyph unicode="&#xc3;" horiz-adv-x="668" d="M4 0V69Q32 69 49 85T77 127T100 183L295 718H365L578 173Q584 158 594 128T606 74Q623 76 638 76T664 77V0H395V66Q423 66 433 77T443 109T432 154L412 209L195 205L179 158Q174 145 165 120T147 77Q163 79 185
79T218 80V0H4ZM220 280H387L341 405Q328 441 318 477T303 542H302Q298 525 290 491T265 410L220 280ZM539 922Q521 871 498 844T451 806T406 796Q383 796 365 803T330 821T296 838T258 846Q239 846 217 835T174 794L118 831Q141 887 179 912T254 938Q279 938 298
931T333 914T365 897T401 889Q421 889 444 907T482 954L539 922Z" />
<glyph unicode="&#xc4;" horiz-adv-x="668" d="M4 0V69Q32 69 49 85T77 127T100 183L295 718H365L578 173Q584 158 594 128T606 74Q623 76 638 76T664 77V0H395V66Q423 66 433 77T443 109T432 154L412 209L195 205L179 158Q174 145 165 120T147 77Q163 79 185
79T218 80V0H4ZM220 280H387L341 405Q328 441 318 477T303 542H302Q298 525 290 491T265 410L220 280ZM242 797Q215 797 195 819T175 872Q175 904 195 926T243 949Q271 949 290 927T309 872Q309 841 289 819T242 797ZM416 797Q390 797 370 819T350 872Q350 904
370 926T417 949Q446 949 464 927T483 872Q483 841 463 819T416 797Z" />
<glyph unicode="&#xc5;" horiz-adv-x="668" d="M4 0V69Q32 69 49 85T77 127T100 183L295 718H365L578 173Q584 158 594 128T606 74Q623 76 638 76T664 77V0H395V66Q423 66 433 77T443 109T432 154L412 209L195 205L179 158Q174 145 165 120T147 77Q163 79 185
79T218 80V0H4ZM220 280H387L341 405Q328 441 318 477T303 542H302Q298 525 290 491T265 410L220 280ZM330 751Q298 751 268 764T218 803T196 872Q195 912 214 942T265 989T329 1006Q360 1006 390 993T440 954T463 885Q464 843 444 813T393 767T330 751ZM336 805Q353
806 363 821T374 867Q374 911 361 933T325 953Q307 952 296 934T285 885Q285 845 299 825T336 805Z" />
<glyph unicode="&#xc6;" horiz-adv-x="935" d="M-6 0V66Q18 66 38 82T78 123T113 171L436 626L361 623V700H861L867 506H801Q801 561 782 589T735 626T680 635L644 634Q623 634 608 629T585 605T577 547V397H694L690 484H767V241H701Q701 283 688 301T653 325T603
329L577 328V164Q577 137 576 113T573 76H707Q737 76 765 89T811 134T829 220H895L889 0H361V66Q384 67 399 72T423 95T432 153V207L236 202L201 151Q185 128 170 108T138 75L218 77V0H-6ZM285 276H432V500L285 276Z" />
<glyph unicode="&#xc7;" horiz-adv-x="688" d="M566 476Q553 559 511 601T398 644Q346 644 307 620T243 556T205 465T192 360Q192 274 216 208T288 103T402 65Q465 65 527 97T631 188L679 144Q630 77 576 43T471 -4T378 -16Q301 -16 238 11T130 87T60 200T35 340Q35
408 57 475T122 596T232 683T385 716Q424 716 470 704T558 667L554 709H631V476H566ZM295 -275L287 -220Q299 -218 319 -212T359 -197T393 -174T407 -146Q407 -127 394 -123T365 -123T339 -136L298 -121L328 10H409L381 -67Q393 -61 414 -56T449 -52Q481 -53 503
-71T525 -125Q525 -160 501 -186T439 -231T363 -260T295 -275Z" />
<glyph unicode="&#xc8;" horiz-adv-x="624" d="M390 241Q390 283 377 302T342 325T292 329L266 328V164Q266 137 265 113T262 76H396Q426 76 454 89T500 134T518 220H583L578 0H50V66Q73 67 88 72T112 95T121 153V536Q121 563 122 588T125 626Q109 625 85 625T50
623V700H550L556 506H490Q490 561 471 589T424 626T369 635L333 634Q312 634 297 629T274 605T266 547V397H383L379 484H456V241H390ZM347 750L205 825Q190 835 179 850T166 884T175 919Q188 936 205 939T240 937T272 917L383 799L347 750Z" />
<glyph unicode="&#xc9;" horiz-adv-x="624" d="M390 241Q390 283 377 302T342 325T292 329L266 328V164Q266 137 265 113T262 76H396Q426 76 454 89T500 134T518 220H583L578 0H50V66Q73 67 88 72T112 95T121 153V536Q121 563 122 588T125 626Q109 625 85 625T50
623V700H550L556 506H490Q490 561 471 589T424 626T369 635L333 634Q312 634 297 629T274 605T266 547V397H383L379 484H456V241H390ZM284 750L248 799L359 917Q373 931 391 937T426 940T456 919Q468 902 466 884T453 851T426 825L284 750Z" />
<glyph unicode="&#xca;" horiz-adv-x="624" d="M390 241Q390 283 377 302T342 325T292 329L266 328V164Q266 137 265 113T262 76H396Q426 76 454 89T500 134T518 220H583L578 0H50V66Q73 67 88 72T112 95T121 153V536Q121 563 122 588T125 626Q109 625 85 625T50
623V700H550L556 506H490Q490 561 471 589T424 626T369 635L333 634Q312 634 297 629T274 605T266 547V397H383L379 484H456V241H390ZM464 774L325 861L182 776L155 821L320 971H339L496 821L464 774Z" />
<glyph unicode="&#xcb;" horiz-adv-x="624" d="M390 241Q390 283 377 302T342 325T292 329L266 328V164Q266 137 265 113T262 76H396Q426 76 454 89T500 134T518 220H583L578 0H50V66Q73 67 88 72T112 95T121 153V536Q121 563 122 588T125 626Q109 625 85 625T50
623V700H550L556 506H490Q490 561 471 589T424 626T369 635L333 634Q312 634 297 629T274 605T266 547V397H383L379 484H456V241H390ZM237 797Q210 797 190 819T170 872Q170 904 190 926T238 949Q266 949 285 927T304 872Q304 841 284 819T237 797ZM411 797Q385
797 365 819T345 872Q345 904 365 926T412 949Q441 949 459 927T478 872Q478 841 458 819T411 797Z" />
<glyph unicode="&#xcc;" horiz-adv-x="387" d="M337 634Q315 633 299 628T275 606T266 547V164Q266 137 265 112T262 74Q278 76 302 76T337 77V0H50V66Q73 67 88 72T112 95T121 153V536Q121 563 122 588T125 626Q109 625 85 625T50 623V700H337V634ZM215 750L73
825Q58 835 47 850T34 884T43 919Q56 936 73 939T108 937T140 917L251 799L215 750Z" />
<glyph unicode="&#xcd;" horiz-adv-x="387" d="M337 634Q315 633 299 628T275 606T266 547V164Q266 137 265 112T262 74Q278 76 302 76T337 77V0H50V66Q73 67 88 72T112 95T121 153V536Q121 563 122 588T125 626Q109 625 85 625T50 623V700H337V634ZM152 750L116
799L227 917Q241 931 259 937T294 940T324 919Q336 902 334 884T321 851T294 825L152 750Z" />
<glyph unicode="&#xce;" horiz-adv-x="387" d="M337 634Q315 633 299 628T275 606T266 547V164Q266 137 265 112T262 74Q278 76 302 76T337 77V0H50V66Q73 67 88 72T112 95T121 153V536Q121 563 122 588T125 626Q109 625 85 625T50 623V700H337V634ZM588 774L449
861L306 776L279 821L444 971H463L620 821L588 774Z" />
<glyph unicode="&#xcf;" horiz-adv-x="387" d="M337 634Q315 633 299 628T275 606T266 547V164Q266 137 265 112T262 74Q278 76 302 76T337 77V0H50V66Q73 67 88 72T112 95T121 153V536Q121 563 122 588T125 626Q109 625 85 625T50 623V700H337V634ZM361 797Q334
797 314 819T294 872Q294 904 314 926T362 949Q390 949 409 927T428 872Q428 841 408 819T361 797ZM535 797Q509 797 489 819T469 872Q469 904 489 926T536 949Q565 949 583 927T602 872Q602 841 582 819T535 797Z" />
<glyph unicode="&#xd0;" horiz-adv-x="758" d="M30 312V391H421V316L30 312ZM50 66Q73 67 88 72T112 95T121 153V536Q121 563 122 588T125 626Q109 625 85 625T50 623V700L341 701Q440 701 512 672T631 592T701 481T724 357Q724 296 703 233T635 118T515 33T336
0H50V66ZM266 164Q266 137 265 112T262 74Q272 75 289 75T326 74T357 73Q412 73 451 95T516 154T554 239T566 336Q566 438 538 503T460 600T339 634Q315 635 299 630T274 606T266 549V164Z" />
<glyph unicode="&#xd1;" horiz-adv-x="773" d="M582 -10L262 399Q249 416 235 435T207 474H206L208 164Q208 137 207 112T204 74Q220 76 244 76T279 77V0H51V66Q74 67 89 72T113 95T122 153L120 536Q120 563 121 588T124 626Q108 625 84 625T48 623V700H205L511
314Q536 282 552 259T581 219H582V536Q582 563 583 588T585 626Q569 625 545 625T510 623V700H738V634Q716 633 700 628T676 606T667 547V-10H582ZM597 922Q579 871 556 844T509 806T464 796Q441 796 423 803T388 821T354 838T316 846Q297 846 275 835T232 794L176
831Q199 887 237 912T312 938Q337 938 356 931T391 914T423 897T459 889Q479 889 502 907T540 954L597 922Z" />
<glyph unicode="&#xd2;" horiz-adv-x="769" d="M383 -16Q288 -16 222 16T114 101T54 220T35 350Q35 413 56 477T121 596T231 683T386 716Q477 716 543 683T651 596T713 477T734 350Q734 288 713 224T648 106T538 18T383 -16ZM394 57Q446 57 481 82T537 149T567
238T576 333Q576 402 564 459T527 557T464 621T373 643Q322 642 287 616T231 548T201 457T192 362Q192 315 202 262T236 162T298 86T394 57ZM407 750L265 825Q250 835 239 850T226 884T235 919Q248 936 265 939T300 937T332 917L443 799L407 750Z" />
<glyph unicode="&#xd3;" horiz-adv-x="769" d="M383 -16Q288 -16 222 16T114 101T54 220T35 350Q35 413 56 477T121 596T231 683T386 716Q477 716 543 683T651 596T713 477T734 350Q734 288 713 224T648 106T538 18T383 -16ZM394 57Q446 57 481 82T537 149T567
238T576 333Q576 402 564 459T527 557T464 621T373 643Q322 642 287 616T231 548T201 457T192 362Q192 315 202 262T236 162T298 86T394 57ZM344 750L308 799L419 917Q433 931 451 937T486 940T516 919Q528 902 526 884T513 851T486 825L344 750Z" />
<glyph unicode="&#xd4;" horiz-adv-x="769" d="M383 -16Q288 -16 222 16T114 101T54 220T35 350Q35 413 56 477T121 596T231 683T386 716Q477 716 543 683T651 596T713 477T734 350Q734 288 713 224T648 106T538 18T383 -16ZM394 57Q446 57 481 82T537 149T567
238T576 333Q576 402 564 459T527 557T464 621T373 643Q322 642 287 616T231 548T201 457T192 362Q192 315 202 262T236 162T298 86T394 57ZM524 774L385 861L242 776L215 821L380 971H399L556 821L524 774Z" />
<glyph unicode="&#xd5;" horiz-adv-x="769" d="M383 -16Q288 -16 222 16T114 101T54 220T35 350Q35 413 56 477T121 596T231 683T386 716Q477 716 543 683T651 596T713 477T734 350Q734 288 713 224T648 106T538 18T383 -16ZM394 57Q446 57 481 82T537 149T567
238T576 333Q576 402 564 459T527 557T464 621T373 643Q322 642 287 616T231 548T201 457T192 362Q192 315 202 262T236 162T298 86T394 57ZM594 922Q576 871 553 844T506 806T461 796Q438 796 420 803T385 821T351 838T313 846Q294 846 272 835T229 794L173 831Q196
887 234 912T309 938Q334 938 353 931T388 914T420 897T456 889Q476 889 499 907T537 954L594 922Z" />
<glyph unicode="&#xd6;" horiz-adv-x="769" d="M383 -16Q288 -16 222 16T114 101T54 220T35 350Q35 413 56 477T121 596T231 683T386 716Q477 716 543 683T651 596T713 477T734 350Q734 288 713 224T648 106T538 18T383 -16ZM394 57Q446 57 481 82T537 149T567
238T576 333Q576 402 564 459T527 557T464 621T373 643Q322 642 287 616T231 548T201 457T192 362Q192 315 202 262T236 162T298 86T394 57ZM297 797Q270 797 250 819T230 872Q230 904 250 926T298 949Q326 949 345 927T364 872Q364 841 344 819T297 797ZM471 797Q445
797 425 819T405 872Q405 904 425 926T472 949Q501 949 519 927T538 872Q538 841 518 819T471 797Z" />
<glyph unicode="&#xd7;" horiz-adv-x="530" d="M135 545L450 230L395 175L80 490L135 545ZM450 491L134 175L80 229L396 545L450 491Z" />
<glyph unicode="&#xd8;" horiz-adv-x="769" d="M595 786L675 737L184 -99L109 -49L595 786ZM383 -16Q288 -16 222 16T114 101T54 220T35 350Q35 413 56 477T121 596T231 683T386 716Q477 716 543 683T651 596T713 477T734 350Q734 288 713 224T648 106T538 18T383
-16ZM394 57Q446 57 481 82T537 149T567 238T576 333Q576 402 564 459T527 557T464 621T373 643Q322 642 287 616T231 548T201 457T192 362Q192 315 202 262T236 162T298 86T394 57Z" />
<glyph unicode="&#xd9;" horiz-adv-x="760" d="M313 634Q291 633 275 628T251 606T242 547V272Q242 209 255 169T291 105T342 71T401 60Q456 58 495 81T555 152T576 274V536Q576 563 577 588T580 626Q564 625 540 625T504 623V700H736V634Q714 633 698 628T674
606T665 547V297Q665 211 644 151T585 54T496 1T385 -16Q301 -16 245 8T157 75T111 174T97 294V536Q97 563 98 588T101 626Q85 625 61 625T26 623V700H313V634ZM408 750L266 825Q251 835 240 850T227 884T236 919Q249 936 266 939T301 937T333 917L444 799L408
750Z" />
<glyph unicode="&#xda;" horiz-adv-x="760" d="M313 634Q291 633 275 628T251 606T242 547V272Q242 209 255 169T291 105T342 71T401 60Q456 58 495 81T555 152T576 274V536Q576 563 577 588T580 626Q564 625 540 625T504 623V700H736V634Q714 633 698 628T674
606T665 547V297Q665 211 644 151T585 54T496 1T385 -16Q301 -16 245 8T157 75T111 174T97 294V536Q97 563 98 588T101 626Q85 625 61 625T26 623V700H313V634ZM345 750L309 799L420 917Q434 931 452 937T487 940T517 919Q529 902 527 884T514 851T487 825L345
750Z" />
<glyph unicode="&#xdb;" horiz-adv-x="760" d="M313 634Q291 633 275 628T251 606T242 547V272Q242 209 255 169T291 105T342 71T401 60Q456 58 495 81T555 152T576 274V536Q576 563 577 588T580 626Q564 625 540 625T504 623V700H736V634Q714 633 698 628T674
606T665 547V297Q665 211 644 151T585 54T496 1T385 -16Q301 -16 245 8T157 75T111 174T97 294V536Q97 563 98 588T101 626Q85 625 61 625T26 623V700H313V634ZM525 774L386 861L243 776L216 821L381 971H400L557 821L525 774Z" />
<glyph unicode="&#xdc;" horiz-adv-x="760" d="M313 634Q291 633 275 628T251 606T242 547V272Q242 209 255 169T291 105T342 71T401 60Q456 58 495 81T555 152T576 274V536Q576 563 577 588T580 626Q564 625 540 625T504 623V700H736V634Q714 633 698 628T674
606T665 547V297Q665 211 644 151T585 54T496 1T385 -16Q301 -16 245 8T157 75T111 174T97 294V536Q97 563 98 588T101 626Q85 625 61 625T26 623V700H313V634ZM298 797Q271 797 251 819T231 872Q231 904 251 926T299 949Q327 949 346 927T365 872Q365 841 345
819T298 797ZM472 797Q446 797 426 819T406 872Q406 904 426 926T473 949Q502 949 520 927T539 872Q539 841 519 819T472 797Z" />
<glyph unicode="&#xdd;" horiz-adv-x="667" d="M203 0V66Q226 67 241 72T265 95T274 153V240L90 531Q76 554 64 582T52 626Q36 625 25 625T3 623V700H298V634Q269 636 250 628T227 603T239 557L315 432Q320 424 330 407T350 370T366 335H367Q372 347 384 371T414
433L466 535Q471 546 480 563T499 598T519 627Q503 626 478 625T442 623V700H663V634Q628 629 603 606T549 527Q517 465 484 402T419 277Q419 263 419 249T419 221T419 192T419 164Q419 137 418 112T415 74Q432 76 458 76T495 77V0H203ZM305 750L269 799L380 917Q394
931 412 937T447 940T477 919Q489 902 487 884T474 851T447 825L305 750Z" />
<glyph unicode="&#xde;" horiz-adv-x="633" d="M50 0V66Q73 67 88 72T112 95T121 153V536Q121 563 122 588T125 626Q109 625 85 625T50 623V700H337V634Q307 633 289 624T267 570L327 571Q415 572 481 552T583 486T617 359Q616 319 598 283T544 218T455 172T331
152Q310 151 296 151T266 151Q265 127 265 106T262 74Q278 76 302 76T337 77V0H50ZM303 223Q386 223 424 259T462 368Q462 416 447 443T410 482T364 497T325 500Q307 500 293 500T266 500V225Q274 224 283 224T303 223Z" />
<glyph unicode="&#xdf;" horiz-adv-x="771" d="M580 -16Q537 -16 506 -5T452 23L454 -7H378L374 165H438Q443 119 476 88T574 56Q596 56 617 69T638 106Q638 135 611 151T527 189Q486 205 449 224T390 274T367 360Q367 410 396 454T494 512Q494 569 482 603T450
653T409 675T368 680Q338 679 310 663T263 605T244 487V163Q244 149 243 123T240 73Q256 75 277 75T310 76V0H42V65Q70 65 82 76T98 107T102 154V419L30 417V500H104Q112 600 149 655T246 732T375 755Q396 755 427 751T493 734T558 692T608 617T627 498Q627 485
627 472T624 444Q599 446 574 446T529 440T496 424T483 393Q483 373 494 360T529 338T586 316Q637 299 675 276T735 219T757 138Q757 86 732 52T667 1T580 -16Z" />
<glyph unicode="&#xe0;" horiz-adv-x="524" d="M319 0Q317 14 317 23T315 46Q281 12 243 -2T166 -16Q102 -16 66 22T30 117Q30 165 54 199T119 254T209 287T309 301V353Q309 379 303 400T281 433T237 444Q218 443 200 436T169 416Q177 407 179 397T181 378Q181
358 165 337T114 316Q84 317 68 337T52 384Q52 424 80 453T157 499T263 516Q351 516 399 471T448 325Q448 291 448 267T448 219T447 161Q447 147 446 122T443 73Q460 75 479 75T508 76V0H319ZM308 230Q280 227 255 220T212 201T183 172T172 134Q173 106 190 94T229
82Q252 82 272 92T308 118Q308 128 308 137T308 157Q308 175 308 193T308 230ZM303 565L182 671Q169 684 161 701T155 737T174 770Q190 783 207 783T241 773T267 746L349 606L303 565Z" />
<glyph unicode="&#xe1;" horiz-adv-x="524" d="M319 0Q317 14 317 23T315 46Q281 12 243 -2T166 -16Q102 -16 66 22T30 117Q30 165 54 199T119 254T209 287T309 301V353Q309 379 303 400T281 433T237 444Q218 443 200 436T169 416Q177 407 179 397T181 378Q181
358 165 337T114 316Q84 317 68 337T52 384Q52 424 80 453T157 499T263 516Q351 516 399 471T448 325Q448 291 448 267T448 219T447 161Q447 147 446 122T443 73Q460 75 479 75T508 76V0H319ZM308 230Q280 227 255 220T212 201T183 172T172 134Q173 106 190 94T229
82Q252 82 272 92T308 118Q308 128 308 137T308 157Q308 175 308 193T308 230ZM201 565L155 606L237 746Q248 763 263 772T297 782T331 770Q347 756 349 738T344 702T322 671L201 565Z" />
<glyph unicode="&#xe2;" horiz-adv-x="524" d="M319 0Q317 14 317 23T315 46Q281 12 243 -2T166 -16Q102 -16 66 22T30 117Q30 165 54 199T119 254T209 287T309 301V353Q309 379 303 400T281 433T237 444Q218 443 200 436T169 416Q177 407 179 397T181 378Q181
358 165 337T114 316Q84 317 68 337T52 384Q52 424 80 453T157 499T263 516Q351 516 399 471T448 325Q448 291 448 267T448 219T447 161Q447 147 446 122T443 73Q460 75 479 75T508 76V0H319ZM308 230Q280 227 255 220T212 201T183 172T172 134Q173 106 190 94T229
82Q252 82 272 92T308 118Q308 128 308 137T308 157Q308 175 308 193T308 230ZM379 562L252 667H251L123 569L81 617L252 783H262L422 613L379 562Z" />
<glyph unicode="&#xe3;" horiz-adv-x="524" d="M319 0Q317 14 317 23T315 46Q281 12 243 -2T166 -16Q102 -16 66 22T30 117Q30 165 54 199T119 254T209 287T309 301V353Q309 379 303 400T281 433T237 444Q218 443 200 436T169 416Q177 407 179 397T181 378Q181
358 165 337T114 316Q84 317 68 337T52 384Q52 424 80 453T157 499T263 516Q351 516 399 471T448 325Q448 291 448 267T448 219T447 161Q447 147 446 122T443 73Q460 75 479 75T508 76V0H319ZM308 230Q280 227 255 220T212 201T183 172T172 134Q173 106 190 94T229
82Q252 82 272 92T308 118Q308 128 308 137T308 157Q308 175 308 193T308 230ZM431 724Q410 662 376 635T312 607Q285 607 266 617T229 636T191 646Q179 646 162 638T129 605L73 638Q90 684 123 712T190 741Q221 741 239 732T272 713T312 703Q329 703 345 716T374
753L431 724Z" />
<glyph unicode="&#xe4;" horiz-adv-x="524" d="M319 0Q317 14 317 23T315 46Q281 12 243 -2T166 -16Q102 -16 66 22T30 117Q30 165 54 199T119 254T209 287T309 301V353Q309 379 303 400T281 433T237 444Q218 443 200 436T169 416Q177 407 179 397T181 378Q181
358 165 337T114 316Q84 317 68 337T52 384Q52 424 80 453T157 499T263 516Q351 516 399 471T448 325Q448 291 448 267T448 219T447 161Q447 147 446 122T443 73Q460 75 479 75T508 76V0H319ZM308 230Q280 227 255 220T212 201T183 172T172 134Q173 106 190 94T229
82Q252 82 272 92T308 118Q308 128 308 137T308 157Q308 175 308 193T308 230ZM338 600Q311 600 292 622T272 675Q272 706 292 728T339 751Q368 751 386 729T405 675Q405 644 385 622T338 600ZM164 600Q137 600 118 622T98 675Q98 706 118 728T165 751Q194 751
212 729T231 675Q231 644 211 622T164 600Z" />
<glyph unicode="&#xe5;" horiz-adv-x="524" d="M319 0Q317 14 317 23T315 46Q281 12 243 -2T166 -16Q102 -16 66 22T30 117Q30 165 54 199T119 254T209 287T309 301V353Q309 379 303 400T281 433T237 444Q218 443 200 436T169 416Q177 407 179 397T181 378Q181
358 165 337T114 316Q84 317 68 337T52 384Q52 424 80 453T157 499T263 516Q351 516 399 471T448 325Q448 291 448 267T448 219T447 161Q447 147 446 122T443 73Q460 75 479 75T508 76V0H319ZM308 230Q280 227 255 220T212 201T183 172T172 134Q173 106 190 94T229
82Q252 82 272 92T308 118Q308 128 308 137T308 157Q308 175 308 193T308 230ZM253 563Q226 563 199 576T154 614T134 674Q133 709 149 736T193 779T252 795Q280 795 307 783T351 747T370 685Q371 648 354 621T310 578T253 563ZM258 624Q271 625 281 637T291 672Q291
706 280 720T251 735Q238 734 228 723T217 687Q217 656 228 640T258 624Z" />
<glyph unicode="&#xe6;" horiz-adv-x="770" d="M167 -16Q103 -16 66 22T29 117Q29 165 53 199T119 254T209 287T309 301V355Q309 381 302 402T280 434T240 445Q220 444 201 438T168 418Q176 410 178 398T181 378Q181 358 165 337T113 316Q84 317 68 337T51 384Q51
421 77 451T150 498T255 516Q306 516 342 498T391 432Q419 478 455 497T549 516Q593 516 635 492T704 415T730 269L447 263Q447 209 457 166T493 98T568 73Q599 73 635 89T706 148L750 106Q715 55 677 29T602 -7T531 -16Q475 -16 436 9T370 68Q324 16 271 0T167
-16ZM231 82Q254 82 275 92T313 120Q312 139 311 157T310 194T309 230Q281 227 256 220T211 201T181 172T171 134Q172 106 191 94T231 82ZM453 333H598Q597 375 588 399T563 434T532 445Q505 445 489 430T464 389T453 333Z" />
<glyph unicode="&#xe7;" horiz-adv-x="518" d="M277 -16Q210 -16 154 14T65 101T31 239Q31 296 50 346T103 434T185 494T291 516Q355 516 397 497T461 446T483 379Q483 350 466 328T416 304Q378 303 363 325T348 369Q348 378 351 390T360 413Q353 428 339 435T311
444T287 446Q239 443 208 398T177 268Q177 218 189 175T231 103T309 73Q351 72 391 93T459 150L505 105Q469 55 430 29T353 -6T277 -16ZM247 -259L239 -207Q251 -205 271 -201T311 -189T345 -170T359 -144Q359 -127 346 -122T317 -121T291 -133L254 -117L285 10H361L333
-69Q345 -62 366 -58T401 -53Q433 -54 453 -70T474 -123Q474 -158 450 -182T390 -221T315 -246T247 -259Z" />
<glyph unicode="&#xe8;" horiz-adv-x="538" d="M278 -16Q205 -16 149 16T62 108T31 249Q31 319 62 380T149 478T281 516Q323 516 363 505T435 465T487 389T506 269L178 263Q178 209 191 166T236 98T319 73Q339 73 364 80T416 103T466 148L511 106Q475 55 434 29T353
-7T278 -16ZM184 333H368Q367 375 357 399T328 435T286 446Q242 446 217 415T184 333ZM335 565L214 671Q201 684 193 701T187 737T206 770Q222 783 239 783T273 773T299 746L381 606L335 565Z" />
<glyph unicode="&#xe9;" horiz-adv-x="538" d="M278 -16Q205 -16 149 16T62 108T31 249Q31 319 62 380T149 478T281 516Q323 516 363 505T435 465T487 389T506 269L178 263Q178 209 191 166T236 98T319 73Q339 73 364 80T416 103T466 148L511 106Q475 55 434 29T353
-7T278 -16ZM184 333H368Q367 375 357 399T328 435T286 446Q242 446 217 415T184 333ZM233 565L187 606L269 746Q280 763 295 772T329 782T363 770Q379 756 381 738T376 702T354 671L233 565Z" />
<glyph unicode="&#xea;" horiz-adv-x="538" d="M278 -16Q205 -16 149 16T62 108T31 249Q31 319 62 380T149 478T281 516Q323 516 363 505T435 465T487 389T506 269L178 263Q178 209 191 166T236 98T319 73Q339 73 364 80T416 103T466 148L511 106Q475 55 434 29T353
-7T278 -16ZM184 333H368Q367 375 357 399T328 435T286 446Q242 446 217 415T184 333ZM411 562L284 667H283L155 569L113 617L284 783H294L454 613L411 562Z" />
<glyph unicode="&#xeb;" horiz-adv-x="538" d="M278 -16Q205 -16 149 16T62 108T31 249Q31 319 62 380T149 478T281 516Q323 516 363 505T435 465T487 389T506 269L178 263Q178 209 191 166T236 98T319 73Q339 73 364 80T416 103T466 148L511 106Q475 55 434 29T353
-7T278 -16ZM184 333H368Q367 375 357 399T328 435T286 446Q242 446 217 415T184 333ZM370 600Q343 600 324 622T304 675Q304 706 324 728T371 751Q400 751 418 729T437 675Q437 644 417 622T370 600ZM196 600Q169 600 150 622T130 675Q130 706 150 728T197 751Q226
751 244 729T263 675Q263 644 243 622T196 600Z" />
<glyph unicode="&#xec;" horiz-adv-x="327" d="M41 65Q69 65 81 76T96 107T100 154V320Q100 338 101 361T104 407Q88 406 67 406T34 404V480Q80 480 112 485T162 497T188 510H242V161Q242 147 241 122T238 73Q254 75 273 75T303 76V0H41V65ZM471 565L350 671Q337
684 329 701T323 737T342 770Q358 783 375 783T409 773T435 746L517 606L471 565Z" />
<glyph unicode="&#xed;" horiz-adv-x="327" d="M41 65Q69 65 81 76T96 107T100 154V320Q100 338 101 361T104 407Q88 406 67 406T34 404V480Q80 480 112 485T162 497T188 510H242V161Q242 147 241 122T238 73Q254 75 273 75T303 76V0H41V65ZM369 565L323 606L405
746Q416 763 431 772T465 782T499 770Q515 756 517 738T512 702T490 671L369 565Z" />
<glyph unicode="&#xee;" horiz-adv-x="327" d="M41 65Q69 65 81 76T96 107T100 154V320Q100 338 101 361T104 407Q88 406 67 406T34 404V480Q80 480 112 485T162 497T188 510H242V161Q242 147 241 122T238 73Q254 75 273 75T303 76V0H41V65ZM416 783H426L567 613L524
562L417 662H416L306 569L264 617L416 783Z" />
<glyph unicode="&#xef;" horiz-adv-x="327" d="M41 65Q69 65 81 76T96 107T100 154V320Q100 338 101 361T104 407Q88 406 67 406T34 404V480Q80 480 112 485T162 497T188 510H242V161Q242 147 241 122T238 73Q254 75 273 75T303 76V0H41V65ZM506 600Q479 600 460
622T440 675Q440 706 460 728T507 751Q536 751 554 729T573 675Q573 644 553 622T506 600ZM332 600Q305 600 286 622T266 675Q266 706 286 728T333 751Q362 751 380 729T399 675Q399 644 379 622T332 600Z" />
<glyph unicode="&#xf0;" horiz-adv-x="542" d="M262 -16Q197 -16 146 12T65 94T33 225Q32 274 45 322T87 409T159 472T261 496Q278 496 303 491T349 467H350Q343 494 324 522T281 576T236 615L178 544L118 598L167 655Q148 666 125 674T75 687L89 760Q133 756
167 745T224 723L275 790L333 738L291 688Q352 647 398 584T470 442T496 270Q496 192 470 127T393 23T262 -16ZM269 69Q296 69 318 88T354 145T367 239Q367 268 362 299T346 357T315 400T269 417Q238 417 216 393T183 331T171 247Q171 162 200 116T269 69Z" />
<glyph unicode="&#xf1;" horiz-adv-x="636" d="M41 0V65Q69 65 81 76T96 107T100 154V322Q100 340 101 362T104 407Q88 406 67 406T34 404V480Q80 480 112 485T162 497T188 510H237Q239 497 239 491T239 480T243 460Q263 476 289 488T341 508T387 516Q479 516
517 464T556 295V161Q556 147 555 122T552 73Q569 75 588 75T617 76V0H355V65Q383 65 395 76T411 107T415 154L414 296Q414 361 396 392T333 424Q308 424 284 413T242 387Q242 373 242 359T242 330V161Q242 147 241 122T238 73Q254 75 273 75T303 76V0H41ZM523
724Q502 662 468 635T404 607Q377 607 358 617T321 636T283 646Q271 646 254 638T221 605L165 638Q182 684 215 712T282 741Q313 741 331 732T364 713T404 703Q421 703 437 716T466 753L523 724Z" />
<glyph unicode="&#xf2;" horiz-adv-x="566" d="M286 -16Q214 -16 156 15T65 103T31 239Q31 322 65 384T157 481T283 516Q355 516 412 485T502 397T535 259Q535 175 503 113T415 18T286 -16ZM290 55Q330 56 350 83T379 151T387 234Q387 271 382 309T364 378T332
428T281 446Q242 445 220 418T188 351T178 266Q178 215 189 166T224 86T290 55ZM334 565L213 671Q200 684 192 701T186 737T205 770Q221 783 238 783T272 773T298 746L380 606L334 565Z" />
<glyph unicode="&#xf3;" horiz-adv-x="566" d="M286 -16Q214 -16 156 15T65 103T31 239Q31 322 65 384T157 481T283 516Q355 516 412 485T502 397T535 259Q535 175 503 113T415 18T286 -16ZM290 55Q330 56 350 83T379 151T387 234Q387 271 382 309T364 378T332
428T281 446Q242 445 220 418T188 351T178 266Q178 215 189 166T224 86T290 55ZM232 565L186 606L268 746Q279 763 294 772T328 782T362 770Q378 756 380 738T375 702T353 671L232 565Z" />
<glyph unicode="&#xf4;" horiz-adv-x="566" d="M286 -16Q214 -16 156 15T65 103T31 239Q31 322 65 384T157 481T283 516Q355 516 412 485T502 397T535 259Q535 175 503 113T415 18T286 -16ZM290 55Q330 56 350 83T379 151T387 234Q387 271 382 309T364 378T332
428T281 446Q242 445 220 418T188 351T178 266Q178 215 189 166T224 86T290 55ZM410 562L283 667H282L154 569L112 617L283 783H293L453 613L410 562Z" />
<glyph unicode="&#xf5;" horiz-adv-x="566" d="M286 -16Q214 -16 156 15T65 103T31 239Q31 322 65 384T157 481T283 516Q355 516 412 485T502 397T535 259Q535 175 503 113T415 18T286 -16ZM290 55Q330 56 350 83T379 151T387 234Q387 271 382 309T364 378T332
428T281 446Q242 445 220 418T188 351T178 266Q178 215 189 166T224 86T290 55ZM462 724Q441 662 407 635T343 607Q316 607 297 617T260 636T222 646Q210 646 193 638T160 605L104 638Q121 684 154 712T221 741Q252 741 270 732T303 713T343 703Q360 703 376 716T405
753L462 724Z" />
<glyph unicode="&#xf6;" horiz-adv-x="566" d="M286 -16Q214 -16 156 15T65 103T31 239Q31 322 65 384T157 481T283 516Q355 516 412 485T502 397T535 259Q535 175 503 113T415 18T286 -16ZM290 55Q330 56 350 83T379 151T387 234Q387 271 382 309T364 378T332
428T281 446Q242 445 220 418T188 351T178 266Q178 215 189 166T224 86T290 55ZM369 600Q342 600 323 622T303 675Q303 706 323 728T370 751Q399 751 417 729T436 675Q436 644 416 622T369 600ZM195 600Q168 600 149 622T129 675Q129 706 149 728T196 751Q225 751
243 729T262 675Q262 644 242 622T195 600Z" />
<glyph unicode="&#xf7;" horiz-adv-x="530" d="M267 123Q234 123 214 146T193 201Q193 233 215 256T266 279Q297 279 317 256T338 201Q338 169 319 146T267 123ZM267 446Q234 446 214 469T193 524Q193 556 215 579T266 602Q297 602 317 579T338 524Q338 492 319
469T267 446ZM42 399H488V321H42V399Z" />
<glyph unicode="&#xf8;" horiz-adv-x="566" d="M116 -83L55 -36L445 574L512 531L116 -83ZM286 -16Q214 -16 156 15T65 103T31 239Q31 322 65 384T157 481T283 516Q355 516 412 485T502 397T535 259Q535 175 503 113T415 18T286 -16ZM290 55Q330 56 350 83T379
151T387 234Q387 271 382 309T364 378T332 428T281 446Q242 445 220 418T188 351T178 266Q178 215 189 166T224 86T290 55Z" />
<glyph unicode="&#xf9;" horiz-adv-x="618" d="M248 -16Q188 -16 152 7T99 79T82 205V320Q82 338 83 361T85 407Q69 406 48 406T15 404V480H25Q87 480 123 490T169 510H224V204Q224 139 241 108T295 76Q321 76 347 90T391 124V320Q391 338 392 361T395 407Q379
406 358 406T325 404V480H349Q396 480 432 490T478 510H533V161Q533 147 532 122T529 73Q545 75 564 75T594 76V0H404Q403 13 402 26T398 52Q367 26 332 5T248 -16ZM367 565L246 671Q233 684 225 701T219 737T238 770Q254 783 271 783T305 773T331 746L413 606L367
565Z" />
<glyph unicode="&#xfa;" horiz-adv-x="618" d="M248 -16Q188 -16 152 7T99 79T82 205V320Q82 338 83 361T85 407Q69 406 48 406T15 404V480H25Q87 480 123 490T169 510H224V204Q224 139 241 108T295 76Q321 76 347 90T391 124V320Q391 338 392 361T395 407Q379
406 358 406T325 404V480H349Q396 480 432 490T478 510H533V161Q533 147 532 122T529 73Q545 75 564 75T594 76V0H404Q403 13 402 26T398 52Q367 26 332 5T248 -16ZM265 565L219 606L301 746Q312 763 327 772T361 782T395 770Q411 756 413 738T408 702T386 671L265
565Z" />
<glyph unicode="&#xfb;" horiz-adv-x="618" d="M248 -16Q188 -16 152 7T99 79T82 205V320Q82 338 83 361T85 407Q69 406 48 406T15 404V480H25Q87 480 123 490T169 510H224V204Q224 139 241 108T295 76Q321 76 347 90T391 124V320Q391 338 392 361T395 407Q379
406 358 406T325 404V480H349Q396 480 432 490T478 510H533V161Q533 147 532 122T529 73Q545 75 564 75T594 76V0H404Q403 13 402 26T398 52Q367 26 332 5T248 -16ZM443 562L316 667H315L187 569L145 617L316 783H326L486 613L443 562Z" />
<glyph unicode="&#xfc;" horiz-adv-x="618" d="M248 -16Q188 -16 152 7T99 79T82 205V320Q82 338 83 361T85 407Q69 406 48 406T15 404V480H25Q87 480 123 490T169 510H224V204Q224 139 241 108T295 76Q321 76 347 90T391 124V320Q391 338 392 361T395 407Q379
406 358 406T325 404V480H349Q396 480 432 490T478 510H533V161Q533 147 532 122T529 73Q545 75 564 75T594 76V0H404Q403 13 402 26T398 52Q367 26 332 5T248 -16ZM402 600Q375 600 356 622T336 675Q336 706 356 728T403 751Q432 751 450 729T469 675Q469 644
449 622T402 600ZM228 600Q201 600 182 622T162 675Q162 706 182 728T229 751Q258 751 276 729T295 675Q295 644 275 622T228 600Z" />
<glyph unicode="&#xfd;" horiz-adv-x="551" d="M148 -271Q110 -271 84 -249T57 -189Q57 -162 74 -142T120 -120Q142 -119 157 -134T173 -177Q173 -180 173 -183T172 -190Q174 -190 177 -189Q186 -186 196 -173T217 -137Q228 -114 238 -86T257 -26L99 291Q71 347
63 375T51 426L5 424V500H254V436V436Q217 432 214 408T222 358L320 134Q330 160 346 214T384 333Q388 346 394 363T409 398T426 427L369 424V500H547V436Q516 429 496 398T459 322L334 -35Q306 -116 281 -168T225 -246T148 -271ZM244 565L198 606L280 746Q291
763 306 772T340 782T374 770Q390 756 392 738T387 702T365 671L244 565Z" />
<glyph unicode="&#xfe;" horiz-adv-x="573" d="M3 -255V-190Q31 -190 43 -179T59 -148T63 -101V565Q63 583 63 606T66 652Q50 651 29 651T-4 649V725Q43 725 74 730T124 742T150 755H204V462Q236 488 270 502T339 516Q399 516 444 485T515 397T541 263Q541 183
510 120T423 20T293 -16Q266 -16 245 -11T204 2V-94Q204 -108 203 -133T200 -182Q217 -180 236 -180T265 -179V-255H3ZM276 59Q323 60 348 86T384 156T394 248Q394 294 383 335T348 401T285 426Q260 425 239 414T204 382V77Q215 70 235 64T276 59Z" />
<glyph unicode="&#xff;" horiz-adv-x="551" d="M148 -271Q110 -271 84 -249T57 -189Q57 -162 74 -142T120 -120Q142 -119 157 -134T173 -177Q173 -180 173 -183T172 -190Q174 -190 177 -189Q186 -186 196 -173T217 -137Q228 -114 238 -86T257 -26L99 291Q71 347
63 375T51 426L5 424V500H254V436V436Q217 432 214 408T222 358L320 134Q330 160 346 214T384 333Q388 346 394 363T409 398T426 427L369 424V500H547V436Q516 429 496 398T459 322L334 -35Q306 -116 281 -168T225 -246T148 -271ZM381 600Q354 600 335 622T315
675Q315 706 335 728T382 751Q411 751 429 729T448 675Q448 644 428 622T381 600ZM207 600Q180 600 161 622T141 675Q141 706 161 728T208 751Q237 751 255 729T274 675Q274 644 254 622T207 600Z" />
<glyph unicode="&#x2013;" horiz-adv-x="563" d="M52 260V368H511V263L52 260Z" />
<glyph unicode="&#x2014;" horiz-adv-x="845" d="M52 260V368H793V263L52 260Z" />
<glyph unicode="&#x2018;" horiz-adv-x="223" d="M125 760L164 732Q154 719 140 693T116 635T107 574Q114 576 118 576T128 577Q155 577 176 562T197 511Q197 481 178 459T125 436Q79 435 56 465T33 541Q33 573 43 609T73 683T125 760Z" />
<glyph unicode="&#x2019;" horiz-adv-x="210" d="M93 436L54 464Q65 478 78 504T102 561T111 622Q104 620 100 620T90 619Q63 619 42 635T21 685Q21 715 40 737T93 760Q139 761 162 731T185 655Q185 623 175 587T145 513T93 436Z" />
<glyph unicode="&#x201a;" horiz-adv-x="250" d="M116 -187L77 -159Q88 -145 101 -119T125 -62T134 -1Q127 -3 123 -3T113 -4Q86 -4 65 12T44 62Q44 92 63 114T116 137Q162 138 185 108T208 32Q208 0 198 -36T168 -110T116 -187Z" />
<glyph unicode="&#x201c;" horiz-adv-x="423" d="M125 760L164 732Q154 719 140 693T116 635T107 574Q114 576 118 576T128 577Q155 577 176 562T197 511Q197 481 178 459T125 436Q79 435 56 465T33 541Q33 573 43 609T73 683T125 760ZM325 760L364 732Q354 719
340 693T316 635T307 574Q314 576 318 576T328 577Q355 577 376 562T397 511Q397 481 378 459T325 436Q279 435 256 465T233 541Q233 573 243 609T273 683T325 760Z" />
<glyph unicode="&#x201d;" horiz-adv-x="411" d="M93 436L54 464Q65 478 78 504T102 561T111 622Q104 620 100 620T90 619Q63 619 42 635T21 685Q21 715 40 737T93 760Q139 761 162 731T185 655Q185 623 175 587T145 513T93 436ZM293 436L254 464Q265 478 278
504T302 561T311 622Q304 620 300 620T290 619Q263 619 242 635T221 685Q221 715 240 737T293 760Q339 761 362 731T385 655Q385 623 375 587T345 513T293 436Z" />
<glyph unicode="&#x201e;" horiz-adv-x="450" d="M116 -187L77 -159Q88 -145 101 -119T125 -62T134 -1Q127 -3 123 -3T113 -4Q86 -4 65 12T44 62Q44 92 63 114T116 137Q162 138 185 108T208 32Q208 0 198 -36T168 -110T116 -187ZM316 -187L277 -159Q288 -145 301
-119T325 -62T334 -1Q327 -3 323 -3T313 -4Q286 -4 265 12T244 62Q244 92 263 114T316 137Q362 138 385 108T408 32Q408 0 398 -36T368 -110T316 -187Z" />
<glyph unicode="&#x2022;" horiz-adv-x="382" d="M190 206Q146 206 110 227T53 283T31 363Q31 407 52 442T110 499T190 520Q234 520 270 499T329 443T351 363Q351 319 329 284T271 227T190 206Z" />
<glyph unicode="&#x2039;" horiz-adv-x="378" d="M290 -16L19 262V284L288 553L345 498L163 275V274L345 39L290 -16Z" />
<glyph unicode="&#x203a;" horiz-adv-x="378" d="M88 -16L33 39L215 274V275L33 498L90 553L359 284V262L88 -16Z" />
</font>
</defs>
</svg>
